Sepultura – Against




Artist: Sepultura
Year: 1998
Genre: Metal
Notes: Discogs
Add. Notes:
Cover incl.: No
Encoder: FLAC
Bitrate: ~1000 kBit/s (44.1 kHz/16 Bit/s)
Log & Cue incl.: Yes
Size: 373,25 MB
Password: “slam” (without ” “)


All Downloads/Hosters are compatible

Download 1
Turbobit.net
Rapidgator.net
KatFile.com
UploadRar.com
Download 2
Turbobit.net
Rapidgator.net
KatFile.com
UploadRar.com
Download 3
Turbobit.net
Rapidgator.net
KatFile.com
UploadRar.com

Tracklist:

1 - Against - 1:54
2 - Choke - 3:36
3 - Rumors - 3:04
4 - Old Earth - 4:28
5 - Floaters In Mud - 4:58
6 - Boycott - 3:10
7 - Tribus - 1:38
8 - Common Bonds - 2:58
9 - F.O.E. - 2:08
10 - Reza - 2:16
11 - Unconscious - 3:37
12 - Kamaitachi - 3:03
13 - Drowned Out - 1:28
14 - Hatred Aside - 5:13
15 - T3rcermillennium - 3:54

EAC-Log, CUE-Sheed & NFO:

Click to open spoiler
REM COMMENT “Declipped, decompressed version”
REM GENRE “Groove Thrash Metal”
REM DATE 1998
REM COMMENT “Released: 05 Oct 1998”
REM LABEL “Roadrunner Records ‎– RRCY-1080”
REM FORMAT “CD, Album”
REM URL
PERFORMER “Sepultura”
TITLE “Against”
FILE “01. Against.flac” WAVE
TRACK 01 AUDIO
PERFORMER “Sepultura”
TITLE “Against”
INDEX 01 00:00:00
FILE “02. Choke.flac” WAVE
TRACK 02 AUDIO
PERFORMER “Sepultura”
TITLE “Choke”
INDEX 01 00:00:00
FILE “03. Rumors.flac” WAVE
TRACK 03 AUDIO
PERFORMER “Sepultura”
TITLE “Rumors”
INDEX 01 00:00:00
FILE “04. Old Earth.flac” WAVE
TRACK 04 AUDIO
PERFORMER “Sepultura”
TITLE “Old Earth”
INDEX 01 00:00:00
FILE “05. Floaters in Mud.flac” WAVE
TRACK 05 AUDIO
PERFORMER “Sepultura”
TITLE “Floaters in Mud”
INDEX 01 00:00:00
FILE “06. Boycott.flac” WAVE
TRACK 06 AUDIO
PERFORMER “Sepultura”
TITLE “Boycott”
INDEX 01 00:00:00
FILE “07. Tribus.flac” WAVE
TRACK 07 AUDIO
PERFORMER “Sepultura”
TITLE “Tribus”
INDEX 01 00:00:00
FILE “08. Common Bonds.flac” WAVE
TRACK 08 AUDIO
PERFORMER “Sepultura”
TITLE “Common Bonds”
INDEX 01 00:00:00
FILE “09. F.O.E. [J.B. Pickers cover].flac” WAVE
TRACK 09 AUDIO
PERFORMER “Sepultura”
TITLE “F.O.E. [J.B. Pickers cover]”
INDEX 01 00:00:00
FILE “10. Reza [feat. João Gordo].flac” WAVE
TRACK 10 AUDIO
PERFORMER “Sepultura”
TITLE “Reza [feat. João Gordo]”
INDEX 01 00:00:00
FILE “11. Unconscious.flac” WAVE
TRACK 11 AUDIO
PERFORMER “Sepultura”
TITLE “Unconscious”
INDEX 01 00:00:00
FILE “12. Kamaitachi [feat. Kodo].flac” WAVE
TRACK 12 AUDIO
PERFORMER “Sepultura”
TITLE “Kamaitachi [feat. Kodo]”
INDEX 01 00:00:00
FILE “13. Drowned Out.flac” WAVE
TRACK 13 AUDIO
PERFORMER “Sepultura”
TITLE “Drowned Out”
INDEX 01 00:00:00
FILE “14. Hatred Aside [feat. Jason Newsted].flac” WAVE
TRACK 14 AUDIO
PERFORMER “Sepultura”
TITLE “Hatred Aside [feat. Jason Newsted]”
INDEX 01 00:00:00
FILE “15. T3rcermillennium.flac” WAVE
TRACK 15 AUDIO
PERFORMER “Sepultura”
TITLE “T3rcermillennium”
INDEX 01 00:00:00
FILE “16. Gene Machine Don’t Bother Me [Bad Brains cover] [bonus track].flac” WAVE
TRACK 16 AUDIO
PERFORMER “Sepultura”
TITLE “Gene Machine / Don’t Bother Me [Bad Brains cover] [bonus track]”
INDEX 01 00:00:00
FILE “17. Prenúncio [feat. Coffin Joe and Jairo Guedz] [bonus track].flac” WAVE
TRACK 17 AUDIO
PERFORMER “Sepultura”
TITLE “Prenúncio [feat. Coffin Joe and Jairo Guedz] [bonus track]”
INDEX 01 00:00:00

Leave a Reply

Your email address will not be published. Required fields are marked *

Enter the text from the image below
 

This site uses Akismet to reduce spam. Learn how your comment data is processed.