Sepultura – A-Lex




[Total: 0    Average: 0/5]

Artist: Sepultura
Year: 2009
Genre: Metal
Notes: Discogs
Add. Notes:
Cover incl.: Yes
Encoder: FLAC
Bitrate: ~1000 kBit/s (44.1 kHz/16 Bit/s)
Log & Cue incl.: Yes
Size: 422,59 MB
Password: “slam” (without ” “)


All Downloads/Hosters are compatible

Download 1
Share-online.biz
KatFile.com
Rapidgator.net
Mexa.sh
Download 2
Share-online.biz
KatFile.com
Rapidgator.net
Mexa.sh

Tracklist:

1 - A-Lex I - 1:54
2 - Moloko Mesto - 2:09
3 - Filthy Rot - 2:46
4 - We've Lost You! - 4:14
5 - What I Do! - 2:01
6 - A-Lex II - 2:18
7 - The Treatment - 3:24
8 - Metamorphosis - 3:02
9 - Sadistic Values - 6:51
10 - Forceful Behaviour - 2:28
11 - Conform - 1:54
12 - A-Lex III - 2:03
13 - The Experiment - 3:28
14 - Strike - 3:41
15 - Enough Said - 1:37
16 - Ludwig Van - 5:30
17 - A-Lex IV - 2:46
18 - Paradox - 2:16

EAC-Log, CUE-Sheed & NFO:

Click to open spoiler
Exact Audio Copy V0.99 prebeta 5 from 4. May 2009

EAC extraction logfile from 22. May 2010, 22:01

SEPULTURA / A-Lex

Used drive : Optiarc DVD RW AD-7203A Adapter: 4 ID: 2

Read mode : Secure
Utilize accurate stream : Yes
Defeat audio cache : Yes
Make use of C2 pointers : No

Read offset correction : 48
Overread into Lead-In and Lead-Out : No
Fill up missing offset samples with silence : Yes
Delete leading and trailing silent blocks : No
Null samples used in CRC calculations : Yes
Used interface : Native Win32 interface for Win NT & 2000

Used output format : Monkey’s Audio Lossless Encoder
Selected bitrate : Normal Lossless Compression
Quality : High
Add ID3 tag : No
Command line compressor : C:\Program Files\Monkey’s Audio\MAC.exe

TOC of the extracted CD

Track | Start | Length | Start sector | End sector
———————————————————
1 | 0:00.00 | 1:54.05 | 0 | 8554
2 | 1:54.05 | 2:09.32 | 8555 | 18261
3 | 4:03.37 | 2:46.02 | 18262 | 30713
4 | 6:49.39 | 4:13.74 | 30714 | 49762
5 | 11:03.38 | 2:01.22 | 49763 | 58859
6 | 13:04.60 | 2:18.34 | 58860 | 69243
7 | 15:23.19 | 3:23.51 | 69244 | 84519
8 | 18:46.70 | 3:01.62 | 84520 | 98156
9 | 21:48.57 | 6:50.70 | 98157 | 128976
10 | 28:39.52 | 2:27.43 | 128977 | 140044
11 | 31:07.20 | 1:54.02 | 140045 | 148596
12 | 33:01.22 | 2:03.11 | 148597 | 157832
13 | 35:04.33 | 3:28.27 | 157833 | 173459
14 | 38:32.60 | 3:40.67 | 173460 | 190026
15 | 42:13.52 | 1:36.65 | 190027 | 197291
16 | 43:50.42 | 5:30.04 | 197292 | 222045
17 | 49:20.46 | 2:46.32 | 222046 | 234527
18 | 52:07.03 | 2:15.59 | 234528 | 244711

Range status and errors

Selected range

Filename D:\[email protected]\MeTaLMaDNeSS\SEPULTURA – A-Lex 2009\SEPULTURA – A-Lex.wav

Peak level 99.9 %
Range quality 100.0 %
Test CRC 29A5A1EB
Copy CRC 29A5A1EB
Copy OK

No errors occurred

AccurateRip summary

Track 1 accurately ripped (confidence 8) [EB89618D]
Track 2 accurately ripped (confidence 8) [A0091F08]
Track 3 accurately ripped (confidence 8) [8C264984]
Track 4 accurately ripped (confidence 7) [3DE0E6A9]
Track 5 accurately ripped (confidence 8) [ACEC1F02]
Track 6 accurately ripped (confidence 8) [577554AA]
Track 7 accurately ripped (confidence 8) [C2625881]
Track 8 accurately ripped (confidence 8) [F898548A]
Track 9 accurately ripped (confidence 8) [17F7262D]
Track 10 accurately ripped (confidence 8) [C9EC7B58]
Track 11 accurately ripped (confidence 8) [007B0672]
Track 12 accurately ripped (confidence 8) [B43B82D0]
Track 13 accurately ripped (confidence 8) [BE9A4877]
Track 14 accurately ripped (confidence 8) [2B4523D3]
Track 15 accurately ripped (confidence 8) [8683F6A7]
Track 16 accurately ripped (confidence 8) [2A67547B]
Track 17 accurately ripped (confidence 8) [8F1195E1]
Track 18 accurately ripped (confidence 7) [2E16868B]

All tracks accurately ripped

End of status report

REM GENRE “Thrash Metal”
REM DATE 2009
REM DISCID EB0CBE12
REM COMMENT “ExactAudioCopy v0.99pb5”
PERFORMER “Sepultura”
TITLE “A-Lex”
FILE “Sepultura – A-Lex.flac” WAVE
TRACK 01 AUDIO
TITLE “A-Lex I”
PERFORMER “Sepultura”
FLAGS DCP
INDEX 01 00:00:00
TRACK 02 AUDIO
TITLE “Moloko Mesto”
PERFORMER “Sepultura”
FLAGS DCP
INDEX 01 01:54:05
TRACK 03 AUDIO
TITLE “Filthy Rot”
PERFORMER “Sepultura”
FLAGS DCP
INDEX 01 04:03:37
TRACK 04 AUDIO
TITLE “We’ve Lost You!”
PERFORMER “Sepultura”
FLAGS DCP
INDEX 01 06:49:39
TRACK 05 AUDIO
TITLE “What I Do!”
PERFORMER “Sepultura”
FLAGS DCP
INDEX 01 11:03:38
TRACK 06 AUDIO
TITLE “A-Lex II”
PERFORMER “Sepultura”
FLAGS DCP
INDEX 01 13:04:60
TRACK 07 AUDIO
TITLE “The Treatment”
PERFORMER “Sepultura”
FLAGS DCP
INDEX 01 15:23:19
TRACK 08 AUDIO
TITLE “Metamorphosis”
PERFORMER “Sepultura”
FLAGS DCP
INDEX 01 18:46:70
TRACK 09 AUDIO
TITLE “Sadistic Values”
PERFORMER “Sepultura”
FLAGS DCP
INDEX 01 21:48:57
TRACK 10 AUDIO
TITLE “Forceful Behaviour”
PERFORMER “Sepultura”
FLAGS DCP
INDEX 01 28:39:52
TRACK 11 AUDIO
TITLE “Conform”
PERFORMER “Sepultura”
FLAGS DCP
INDEX 01 31:07:20
TRACK 12 AUDIO
TITLE “A-Lex III”
PERFORMER “Sepultura”
FLAGS DCP
INDEX 01 33:01:22
TRACK 13 AUDIO
TITLE “The Experiment”
PERFORMER “Sepultura”
FLAGS DCP
INDEX 01 35:04:33
TRACK 14 AUDIO
TITLE “Strike”
PERFORMER “Sepultura”
FLAGS DCP
INDEX 01 38:32:60
TRACK 15 AUDIO
TITLE “Enough Said”
PERFORMER “Sepultura”
FLAGS DCP
INDEX 01 42:13:52
TRACK 16 AUDIO
TITLE “Ludwig Van”
PERFORMER “Sepultura”
FLAGS DCP
INDEX 01 43:50:42
TRACK 17 AUDIO
TITLE “A-Lex IV”
PERFORMER “Sepultura”
FLAGS DCP
INDEX 01 49:20:46
TRACK 18 AUDIO
TITLE “Paradox”
PERFORMER “Sepultura”
FLAGS DCP
INDEX 01 52:07:03


Spread the Download

Leave a Reply

Your email address will not be published. Required fields are marked *

Enter the text from the image below
 

This site uses Akismet to reduce spam. Learn how your comment data is processed.