Rammstein – Sehnsucht (Remastered)




Artist: Rammstein
Year: 1997/2017
Genre: Metal
Notes: Discogs
Add. Notes: Remastered
Cover incl.: Yes
Encoder: FLAC
Bitrate: ~5500 kBit/s (192 kHz/24 Bit/s)
Log & Cue incl.: Yes
Size: 2237,53 MB
Password: “slam” (without ” “)


All Downloads/Hosters are compatible

Download 1
Turbobit.net
Rapidgator.net
UploadEver.com
JustUpload.io
HexUpload.net
Download 2
Turbobit.net
Rapidgator.net
UploadEver.com
JustUpload.io
HexUpload.net
Download 3
Turbobit.net
Rapidgator.net
UploadEver.com
JustUpload.io
HexUpload.net

Tracklist:

A1 - Sehnsucht - 4:04
A2 - Engel - 4:24
A3 - Tier - 3:46
B1 - Bestrafe Mich - 3:36
B2 - Du Hast - 3:54
B3 - Bück Dich - 3:21
C1 - Spiel Mit Mir - 4:45
C2 - Klavier - 4:22
C3 - Alter Mann - 4:22
D1 - Eifersucht - 3:35
D2 - Küss Mich (Fellfrosch) - 3:30

EAC-Log, CUE-Sheed & NFO:

Click to open spoiler
REM GENRE Industrial
REM DATE 1998
REM COMMENT UNI-0602527-29662
PERFORMER “Rammstein”
TITLE “Sehnsucht”
FILE “Sehnsucht.flac” WAVE
TRACK 01 AUDIO
TITLE “Sehnsucht”
INDEX 01 00:00:00
TRACK 02 AUDIO
TITLE “Engel”
INDEX 01 04:03:61
TRACK 03 AUDIO
TITLE “Tier”
INDEX 01 08:28:71
TRACK 04 AUDIO
TITLE “Bestrafe mich”
INDEX 01 12:17:00
TRACK 05 AUDIO
TITLE “Du hast”
INDEX 01 15:55:24
TRACK 06 AUDIO
TITLE “Bueck dich”
INDEX 01 19:51:15
TRACK 07 AUDIO
TITLE “Spiel mit mir”
INDEX 01 23:14:71
TRACK 08 AUDIO
TITLE “Klavier”
INDEX 01 28:02:00
TRACK 09 AUDIO
TITLE “Alter Mann”
INDEX 01 32:26:39
TRACK 10 AUDIO
TITLE “Eifersucht”
INDEX 01 36:50:54
TRACK 11 AUDIO
TITLE “Kuess mich (Fellfrosch)”
INDEX 01 40:28:06

Leave a Reply

Your email address will not be published. Required fields are marked *

This site uses Akismet to reduce spam. Learn how your comment data is processed.