Scorpions – Virgin Killer




Artist: Scorpions
Year: 1976/1988
Genre: Rock
Notes: Discogs
Add. Notes:
Cover incl.: Yes
Encoder: FLAC
Bitrate: ~900 kBit/s (44.1 kHz/16 Bit/s)
Log & Cue incl.: Yes
Size: 253,55 MB
Password: “slam” (without ” “)


All Downloads/Hosters are compatible

Download 1
Turbobit.net
Rapidgator.net
UploadByte.com
UploadEver.com
JustUpload.io
Download 2
Turbobit.net
Rapidgator.net
UploadByte.com
UploadEver.com
JustUpload.io
Download 3
Turbobit.net
Rapidgator.net
UploadByte.com
UploadEver.com
JustUpload.io

Tracklist:

1 - Pictured Life - 3:22
2 - Catch Your Train - 3:35
3 - In Your Park - 3:42
4 - Backstage Queen - 3:10
5 - Virgin Killer - 3:42
6 - Hell-Cat - 2:55
7 - Crying Days - 4:38
8 - Polar Nights - 5:05
9 - Yellow Raven - 4:58

EAC-Log, CUE-Sheed & NFO:

Click to open spoiler
Exact Audio Copy V0.99 prebeta 4 from 23. January 2008

EAC extraction logfile from 23. June 2010, 17:58

Scorpions / Virgin Killer (ND70031)

Used drive : PIONEER DVD-RW DVR-105 Adapter: 0 ID: 1

Read mode : Secure
Utilize accurate stream : Yes
Defeat audio cache : Yes
Make use of C2 pointers : No

Read offset correction : 48
Overread into Lead-In and Lead-Out : Yes
Fill up missing offset samples with silence : Yes
Delete leading and trailing silent blocks : No
Null samples used in CRC calculations : Yes
Used interface : Installed external ASPI interface

Used output format : User Defined Encoder
Selected bitrate : 128 kBit/s
Quality : High
Add ID3 tag : No
Command line compressor : C:\Program Files\Exact Audio Copy\Flac\flac.exe
Additional command line options : -8 -V -T “ARTIST=%a” -T “TITLE=%t” -T “ALBUM=%g” -T “DATE=%y” -T “TRACKNUMBER=%n” -T “GENRE=%m” -T “COMMENT=EAC FLAC -8” %s

TOC of the extracted CD

Track | Start | Length | Start sector | End sector
———————————————————
1 | 0:00.00 | 3:25.10 | 0 | 15384
2 | 3:25.10 | 3:38.20 | 15385 | 31754
3 | 7:03.30 | 3:45.65 | 31755 | 48694
4 | 10:49.20 | 3:13.62 | 48695 | 63231
5 | 14:03.07 | 3:44.48 | 63232 | 80079
6 | 17:47.55 | 2:58.10 | 80080 | 93439
7 | 20:45.65 | 4:40.57 | 93440 | 114496
8 | 25:26.47 | 5:08.33 | 114497 | 137629
9 | 30:35.05 | 5:01.50 | 137630 | 160254

Range status and errors

Selected range

Filename C:\Olaf der Weisse\Scorpions . 1976 . Virgin Killer (ND70031)\Scorpions . 1976 . Virgin Killer (ND70031).wav

Peak level 76.0 %
Range quality 100.0 %
Test CRC D4CBCBE5
Copy CRC D4CBCBE5
Copy OK

No errors occurred

AccurateRip summary
Track 1 accurately ripped (confidence 17) [C0426B88]
Track 2 accurately ripped (confidence 17) [1E69B7DE]
Track 3 accurately ripped (confidence 17) [FF49687E]
Track 4 accurately ripped (confidence 17) [67C2E19E]
Track 5 accurately ripped (confidence 17) [B24FF070]
Track 6 accurately ripped (confidence 17) [80CD7238]
Track 7 accurately ripped (confidence 17) [13F177B5]
Track 8 accurately ripped (confidence 17) [C7946BEF]
Track 9 accurately ripped (confidence 17) [E0C025F0]
All tracks accurately ripped

End of status report

REM GENRE “Hard Rock”
REM DATE 1976
REM DISCID 74085809
REM COMMENT “ExactAudioCopy v0.99pb4”
PERFORMER “Scorpions”
TITLE “Virgin Killer (ND70031)”
FILE “Scorpions . 1976 . Virgin Killer (ND70031).flac” WAVE
TRACK 01 AUDIO
TITLE “Pictured Life”
PERFORMER “Scorpions”
INDEX 01 00:00:00
TRACK 02 AUDIO
TITLE “Catch Your Train”
PERFORMER “Scorpions”
INDEX 00 03:23:65
INDEX 01 03:25:10
TRACK 03 AUDIO
TITLE “In Your Park”
PERFORMER “Scorpions”
INDEX 00 07:00:15
INDEX 01 07:03:30
TRACK 04 AUDIO
TITLE “Backstage Queen”
PERFORMER “Scorpions”
INDEX 00 10:46:10
INDEX 01 10:49:20
TRACK 05 AUDIO
TITLE “Virgin Killer”
PERFORMER “Scorpions”
INDEX 00 14:00:37
INDEX 01 14:03:07
TRACK 06 AUDIO
TITLE “Hell Cat”
PERFORMER “Scorpions”
INDEX 00 17:45:10
INDEX 01 17:47:55
TRACK 07 AUDIO
TITLE “Crying Days”
PERFORMER “Scorpions”
INDEX 00 20:43:30
INDEX 01 20:45:65
TRACK 08 AUDIO
TITLE “Polar Nights”
PERFORMER “Scorpions”
INDEX 00 25:23:17
INDEX 01 25:26:47
TRACK 09 AUDIO
TITLE “Yellow Raven”
PERFORMER “Scorpions”
INDEX 01 30:35:05

Leave a Reply

Your email address will not be published. Required fields are marked *

This site uses Akismet to reduce spam. Learn how your comment data is processed.