Scorpions – In Trance (Remastered)




Artist: Scorpions
Year: 1975/1990
Genre: Rock
Notes: Discogs
Add. Notes: Remastered
Encoder: FLAC
Bitrate: ~1000 kBit/s (44.1 kHz/16 Bit/s)
Bin/Cue incl.: Yes
Size: 277,36 MB
Password: “slam” (without ” “)


http://www.share-online.biz/dl/XS99EVRPDEI

https://rapidgator.net/file/ef5f03443d7eeef128901a23e7912b8f

https://uploadbyte.com/v0tdlui76wfm

https://uploadever.com/0i2tf903m16d

https://justupload.io/b17r7c1vi6cs

Tracklist:

1 - Dark Lady - 3:25
2 - In Trance - 4:42
3 - Life's Like A River - 3:50
4 - Top Of The Bill - 3:22
5 - Living And Dying - 3:18
6 - Robot Man - 2:42
7 - Evening Wind - 5:02
8 - Sun In My Hand - 4:20
9 - Longing For Fire - 2:42
10 - Night Lights - 3:14

EAC-Log, CUE-Sheed & NFO:

Click to open spoiler
Exact Audio Copy V1.0 beta 3 from 29. August 2011

Отчёт EAC об извлечении, выполненном 10. ноября 2012, 19:03

Scorpions / In Trance (4128-2-R)

Дисковод: Optiarc DVD RW AD-5170A Adapter: 0 ID: 0

Режим чтения : Достоверность
Использование точного потока : Да
Отключение кэша аудио : Да
Использование указателей C2 : Нет

Коррекция смещения при чтении : 48
Способность читать области Lead-in и Lead-out : Нет
Заполнение пропущенных сэмплов тишиной : Да
Удаление блоков с тишиной в начале и конце : Нет
При вычислениях CRC использовались нулевые сэмплы : Да
Интерфейс : Встроенный Win32-интерфейс для Win NT/2000

Выходной формат : Внутренние WAV-операции
Формат сэмплов : 44.100 Гц; 16 бит; стерео

TOC извлечённого CD

Трек | Старт | Длительность | Начальный сектор | Конечный сектор
———————————————————————
1 | 0:00.00 | 3:28.62 | 0 | 15661
2 | 3:28.62 | 4:47.70 | 15662 | 37256
3 | 8:16.57 | 3:51.50 | 37257 | 54631
4 | 12:08.32 | 3:29.03 | 54632 | 70309
5 | 15:37.35 | 3:23.27 | 70310 | 85561
6 | 19:00.62 | 2:45.38 | 85562 | 97974
7 | 21:46.25 | 5:05.25 | 97975 | 120874
8 | 26:51.50 | 4:24.60 | 120875 | 140734
9 | 31:16.35 | 2:45.57 | 140735 | 153166
10 | 34:02.17 | 3:14.48 | 153167 | 167764

Характеристики диапазона извлечения и сообщения об ошибках

Выбранный диапазон

Имя файла C:\1975 – In Trance (4128-2-R).wav

Пиковый уровень 79.9 %
Скорость извлечения 4.4 X
Качество диапазона 100.0 %
CRC теста 5ADCAEE3
CRC копии 5ADCAEE3
Копирование… OK

Ошибок не произошло

AccurateRip: сводка
Трек 1 : извлечено точно (доверие 7) [02688895] (AR v1)
Трек 2 : извлечено точно (доверие 7) [31F8C9FB] (AR v1)
Трек 3 : извлечено точно (доверие 7) [C235B6E4] (AR v1)
Трек 4 : извлечено точно (доверие 7) [5E9726EE] (AR v1)
Трек 5 : извлечено точно (доверие 7) [2FCBEBA1] (AR v1)
Трек 6 : извлечено точно (доверие 7) [A5E7D5AC] (AR v1)
Трек 7 : извлечено точно (доверие 7) [70CD57DC] (AR v1)
Трек 8 : извлечено точно (доверие 7) [1916A417] (AR v1)
Трек 9 : извлечено точно (доверие 7) [CF9C5AAD] (AR v1)
Трек 10 : извлечено точно (доверие 7) [A16C2EFD] (AR v1)
Все треки извлечены точно

Конец отчёта

REM GENRE “Heavy Rock”
REM DATE 1975
REM DISCID 7A08BC0A
REM COMMENT “ExactAudioCopy v1.0b3”
PERFORMER “Scorpions”
TITLE “In Trance (4128-2-R)”
FILE “Scorpions – In Trance (4128-2-R).flac” WAVE
TRACK 01 AUDIO
TITLE “Dark Lady”
PERFORMER “Scorpions”
ISRC 000000000000
INDEX 01 00:00:00
TRACK 02 AUDIO
TITLE “In Trance”
PERFORMER “Scorpions”
ISRC 000000000000
INDEX 00 03:26:45
INDEX 01 03:28:62
TRACK 03 AUDIO
TITLE “Life’s Like A River”
PERFORMER “Scorpions”
ISRC 000000000000
INDEX 00 08:14:52
INDEX 01 08:16:57
TRACK 04 AUDIO
TITLE “Top Of The Bill”
PERFORMER “Scorpions”
ISRC 000000000000
INDEX 00 12:06:22
INDEX 01 12:08:32
TRACK 05 AUDIO
TITLE “Living And Dying”
PERFORMER “Scorpions”
ISRC 000000000000
INDEX 00 15:35:25
INDEX 01 15:37:35
TRACK 06 AUDIO
TITLE “Robot Man”
PERFORMER “Scorpions”
ISRC 000000000000
INDEX 00 18:58:60
INDEX 01 19:00:62
TRACK 07 AUDIO
TITLE “Evening Wind”
PERFORMER “Scorpions”
ISRC 000000000000
INDEX 00 21:44:27
INDEX 01 21:46:25
TRACK 08 AUDIO
TITLE “Sun In My Hand”
PERFORMER “Scorpions”
ISRC 000000000000
INDEX 00 26:49:17
INDEX 01 26:51:50
TRACK 09 AUDIO
TITLE “Longing For Fire”
PERFORMER “Scorpions”
ISRC 000000000000
INDEX 00 31:14:47
INDEX 01 31:16:35
TRACK 10 AUDIO
TITLE “Night Lights”
PERFORMER “Scorpions”
ISRC 000000000000
INDEX 00 33:59:10
INDEX 01 34:02:17

Leave a Reply

Your email address will not be published. Required fields are marked *

Enter the text from the image below
 

This site uses Akismet to reduce spam. Learn how your comment data is processed.