Schandmaul – Unendlich (Limited Super Deluxe Version)




Artist: Schandmaul
Year: 2014
Genre: Rock
Notes: Discogs
Add. Notes:
Cover incl.: Yes
Encoder: FLAC
Bitrate: ~900 kBit/s (44.1 kHz/16 Bit/s)
Log & Cue incl.: Yes
Size: 665,2 MB
Password: “slam” (without ” “)


All Downloads/Hosters are compatible

Download 1
KatFile.com
Turbobit.net
FileFactory.com
Rapidgator.net
Download 2
KatFile.com
Turbobit.net
FileFactory.com
Rapidgator.net

Tracklist:

CD1-1 - Trafalgar - 3:38
CD1-2 - Tippelbruder - 3:10
CD1-3 - Kaspar - 3:11
CD1-4 - In Deinem Namen - 4:41
CD1-5 - Bunt Und Nicht Braun - 3:42
CD1-6 - Mit Der Flut - 2:49
CD1-7 - Baum Des Lebens - 3:45
CD1-8 - Tangossa - 3:54
CD1-9 - Euch Zum Geleit - 4:09
CD1-10 - Saphira - 4:31
CD1-11 - Mittsommer - 4:16
CD1-12 - Little Miss Midleton - 2:49
CD1-13 - Der Teufel... - 2:40
CD1-14 - Mein Bildnis - 4:02
CD1-15 - Märchenmond - 6:46
Akustikversionen
CD2-1 - Trafalgar - 4:15
CD2-2 - Tippelbruder - 2:25
CD2-3 - Kaspar - 2:50
CD2-4 - In Deinem Namen - 3:27
CD2-5 - Bunt Und Nicht Braun - 3:08
CD2-6 - Mit Der Flut - 2:37
CD2-7 - Baum Des Lebens - 3:27
CD2-8 - Euch Zum Geleit - 4:06
CD2-9 - Saphira - 4:08
CD2-10 - Mittsommer - 3:01
CD2-11 - Der Teufel... - 1:35
CD2-12 - Mein Bildnis - 3:16
CD2-13 - Märchenmond - 3:29

EAC-Log, CUE-Sheed & NFO:

Click to open spoiler
Exact Audio Copy V1.0 beta 3 from 29. August 2011

EAC extraction logfile from 28. January 2014, 14:21

Schandmaul / Unendlich (Limited Super Deluxe Version) CD 1

Used drive : HP DVD Writer 1170d Adapter: 2 ID: 0

Read mode : Secure
Utilize accurate stream : Yes
Defeat audio cache : Yes
Make use of C2 pointers : No

Read offset correction : 6
Overread into Lead-In and Lead-Out : No
Fill up missing offset samples with silence : Yes
Delete leading and trailing silent blocks : No
Null samples used in CRC calculations : Yes
Used interface : Native Win32 interface for Win NT & 2000

Used output format : User Defined Encoder
Selected bitrate : 1024 kBit/s
Quality : High
Add ID3 tag : No
Command line compressor : C:\Program Files\Exact Audio Copy\FLAC\FLAC.EXE
Additional command line options : -V -8 -T “Date=%year%” -T “Genre=%genre%” -T”COMMENT=Ripped by Ungern666″ -8 -V %source%

TOC of the extracted CD

Track | Start | Length | Start sector | End sector
———————————————————
1 | 0:00.00 | 3:39.06 | 0 | 16430
2 | 3:39.06 | 3:11.41 | 16431 | 30796
3 | 6:50.47 | 3:13.71 | 30797 | 45342
4 | 10:04.43 | 4:43.34 | 45343 | 66601
5 | 14:48.02 | 3:43.26 | 66602 | 83352
6 | 18:31.28 | 2:51.32 | 83353 | 96209
7 | 21:22.60 | 3:46.73 | 96210 | 113232
8 | 25:09.58 | 3:56.19 | 113233 | 130951
9 | 29:06.02 | 4:10.68 | 130952 | 149769
10 | 33:16.70 | 4:32.67 | 149770 | 170236
11 | 37:49.62 | 4:18.08 | 170237 | 189594
12 | 42:07.70 | 2:51.40 | 189595 | 202459
13 | 44:59.35 | 2:41.59 | 202460 | 214593
14 | 47:41.19 | 4:03.49 | 214594 | 232867
15 | 51:44.68 | 6:46.53 | 232868 | 263370

Range status and errors

Selected range

Filename C:\EAC\Ungern666\Schandmaul – Unendlich (Limited Super Deluxe Version) CD 1.wav

Peak level 98.8 %
Extraction speed 5.5 X
Range quality 100.0 %
Test CRC E23A4403
Copy CRC E23A4403
Copy OK

No errors occurred

AccurateRip summary

Track 1 not present in database
Track 2 not present in database
Track 3 not present in database
Track 4 not present in database
Track 5 not present in database
Track 6 not present in database
Track 7 not present in database
Track 8 not present in database
Track 9 not present in database
Track 10 not present in database
Track 11 not present in database
Track 12 not present in database
Track 13 not present in database
Track 14 not present in database
Track 15 not present in database

None of the tracks are present in the AccurateRip database

End of status report

—- CUETools DB Plugin V2.1.5

[CTDB TOCID: DaJ1NYpG.ghJnP9eLMhbpUsjeQM-] found
Submit result: DaJ1NYpG.ghJnP9eLMhbpUsjeQM- has been confirmed
Track | CTDB Status
1 | (22/22) Accurately ripped
2 | (22/22) Accurately ripped
3 | (22/22) Accurately ripped
4 | (22/22) Accurately ripped
5 | (22/22) Accurately ripped
6 | (22/22) Accurately ripped
7 | (22/22) Accurately ripped
8 | (22/22) Accurately ripped
9 | (22/22) Accurately ripped
10 | (22/22) Accurately ripped
11 | (22/22) Accurately ripped
12 | (22/22) Accurately ripped
13 | (22/22) Accurately ripped
14 | (22/22) Accurately ripped
15 | (22/22) Accurately ripped

==== Log checksum DE13AE222AEE252159AD447AC44D69A0E77A21C958572D88DF8B011D945BB8CA ====

Exact Audio Copy V1.0 beta 3 from 29. August 2011

EAC extraction logfile from 28. January 2014, 14:41

Schandmaul / Unendlich (Limited Super Deluxe Version) CD 2

Used drive : HP DVD Writer 1170d Adapter: 2 ID: 0

Read mode : Secure
Utilize accurate stream : Yes
Defeat audio cache : Yes
Make use of C2 pointers : No

Read offset correction : 6
Overread into Lead-In and Lead-Out : No
Fill up missing offset samples with silence : Yes
Delete leading and trailing silent blocks : No
Null samples used in CRC calculations : Yes
Used interface : Native Win32 interface for Win NT & 2000

Used output format : User Defined Encoder
Selected bitrate : 1024 kBit/s
Quality : High
Add ID3 tag : No
Command line compressor : C:\Program Files\Exact Audio Copy\FLAC\FLAC.EXE
Additional command line options : -V -8 -T “Date=%year%” -T “Genre=%genre%” -T”COMMENT=Ripped by Ungern666″ -8 -V %source%

TOC of the extracted CD

Track | Start | Length | Start sector | End sector
———————————————————
1 | 0:00.00 | 4:14.65 | 0 | 19114
2 | 4:14.65 | 2:25.00 | 19115 | 29989
3 | 6:39.65 | 2:50.37 | 29990 | 42776
4 | 9:30.27 | 3:26.51 | 42777 | 58277
5 | 12:57.03 | 3:07.66 | 58278 | 72368
6 | 16:04.69 | 2:37.14 | 72369 | 84157
7 | 18:42.08 | 3:27.38 | 84158 | 99720
8 | 22:09.46 | 4:04.35 | 99721 | 118055
9 | 26:14.06 | 4:07.62 | 118056 | 136642
10 | 30:21.68 | 3:01.28 | 136643 | 150245
11 | 33:23.21 | 1:34.74 | 150246 | 157369
12 | 34:58.20 | 3:15.40 | 157370 | 172034
13 | 38:13.60 | 3:29.22 | 172035 | 187731

Range status and errors

Selected range

Filename C:\EAC\Ungern666\Schandmaul – Unendlich (Limited Super Deluxe Version) CD 2.wav

Peak level 98.8 %
Extraction speed 6.2 X
Range quality 100.0 %
Test CRC 67336218
Copy CRC 67336218
Copy OK

No errors occurred

AccurateRip summary

Track 1 not present in database
Track 2 not present in database
Track 3 not present in database
Track 4 not present in database
Track 5 not present in database
Track 6 not present in database
Track 7 not present in database
Track 8 not present in database
Track 9 not present in database
Track 10 not present in database
Track 11 not present in database
Track 12 not present in database
Track 13 not present in database

None of the tracks are present in the AccurateRip database

End of status report

—- CUETools DB Plugin V2.1.5

[CTDB TOCID: Tb39NgcXhrc4f5akwpucXGjGbbc-] found
Submit result: Tb39NgcXhrc4f5akwpucXGjGbbc- has been confirmed
Track | CTDB Status
1 | (19/19) Accurately ripped
2 | (19/19) Accurately ripped
3 | (19/19) Accurately ripped
4 | (19/19) Accurately ripped
5 | (19/19) Accurately ripped
6 | (19/19) Accurately ripped
7 | (19/19) Accurately ripped
8 | (19/19) Accurately ripped
9 | (19/19) Accurately ripped
10 | (19/19) Accurately ripped
11 | (19/19) Accurately ripped
12 | (19/19) Accurately ripped
13 | (19/19) Accurately ripped

==== Log checksum 2553F9C573B809F9B8E7B8BCD53EECE3EFA6C6EE325D3C160CA60B439C078077 ====

REM DATE 2014
REM DISCID BC0DB70F
REM COMMENT “ExactAudioCopy v1.0b3”
PERFORMER “Schandmaul”
TITLE “Unendlich (Limited Super Deluxe Version) CD 1”
FILE “Schandmaul – Unendlich (Limited Super Deluxe Version) CD 1.flac” WAVE
TRACK 01 AUDIO
TITLE “Trafalgar”
PERFORMER “Schandmaul”
INDEX 01 00:00:00
TRACK 02 AUDIO
TITLE “Tippelbruder”
PERFORMER “Schandmaul”
INDEX 00 03:37:61
INDEX 01 03:39:06
TRACK 03 AUDIO
TITLE “Kaspar”
PERFORMER “Schandmaul”
INDEX 00 06:48:37
INDEX 01 06:50:47
TRACK 04 AUDIO
TITLE “In Deinem Namen”
PERFORMER “Schandmaul”
INDEX 00 10:01:36
INDEX 01 10:04:43
TRACK 05 AUDIO
TITLE “Bunt Und Nicht Braun”
PERFORMER “Schandmaul”
INDEX 00 14:45:49
INDEX 01 14:48:02
TRACK 06 AUDIO
TITLE “Mit Der Flut”
PERFORMER “Schandmaul”
INDEX 00 18:30:16
INDEX 01 18:31:28
TRACK 07 AUDIO
TITLE “Baum Des Lebens”
PERFORMER “Schandmaul”
INDEX 00 21:20:45
INDEX 01 21:22:60
TRACK 08 AUDIO
TITLE “Tangossa”
PERFORMER “Schandmaul”
INDEX 00 25:07:34
INDEX 01 25:09:58
TRACK 09 AUDIO
TITLE “Euch Zum Geleit”
PERFORMER “Schandmaul”
INDEX 00 29:03:67
INDEX 01 29:06:02
TRACK 10 AUDIO
TITLE “Saphira”
PERFORMER “Schandmaul”
INDEX 00 33:14:71
INDEX 01 33:16:70
TRACK 11 AUDIO
TITLE “Mittsommer”
PERFORMER “Schandmaul”
INDEX 00 37:48:23
INDEX 01 37:49:62
TRACK 12 AUDIO
TITLE “Little Miss Midleton”
PERFORMER “Schandmaul”
INDEX 00 42:06:28
INDEX 01 42:07:70
TRACK 13 AUDIO
TITLE “Der Teufel …”
PERFORMER “Schandmaul”
INDEX 00 44:57:12
INDEX 01 44:59:35
TRACK 14 AUDIO
TITLE “Mein Bildnis”
PERFORMER “Schandmaul”
INDEX 00 47:39:06
INDEX 01 47:41:19
TRACK 15 AUDIO
TITLE “Marchenmond”
PERFORMER “Schandmaul”
INDEX 00 51:43:56
INDEX 01 51:44:68

REM DATE 2014
REM DISCID 9B09C70D
REM COMMENT “ExactAudioCopy v1.0b3”
PERFORMER “Schandmaul”
TITLE “Unendlich (Limited Super Deluxe Version) CD 2”
FILE “Schandmaul – Unendlich (Limited Super Deluxe Version) CD 2.flac” WAVE
TRACK 01 AUDIO
TITLE “Trafalgar (Akustik Version)”
PERFORMER “Schandmaul”
INDEX 01 00:00:00
TRACK 02 AUDIO
TITLE “Tippelbruder (Akustik Version)”
PERFORMER “Schandmaul”
INDEX 01 04:14:65
TRACK 03 AUDIO
TITLE “Kaspar (Akustik Version)”
PERFORMER “Schandmaul”
INDEX 01 06:39:65
TRACK 04 AUDIO
TITLE “In Deinem Namen (Akustik Version)”
PERFORMER “Schandmaul”
INDEX 01 09:30:27
TRACK 05 AUDIO
TITLE “Bunt Und Nicht Braun (Akustik Version)”
PERFORMER “Schandmaul”
INDEX 01 12:57:03
TRACK 06 AUDIO
TITLE “Mit Der Flut (Akustik Version)”
PERFORMER “Schandmaul”
INDEX 01 16:04:69
TRACK 07 AUDIO
TITLE “Baum Des Lebens (Akustik Version)”
PERFORMER “Schandmaul”
INDEX 01 18:42:08
TRACK 08 AUDIO
TITLE “Euch Zum Geleit (Akustik Version)”
PERFORMER “Schandmaul”
INDEX 01 22:09:46
TRACK 09 AUDIO
TITLE “Saphira (Akustik Version)”
PERFORMER “Schandmaul”
INDEX 01 26:14:06
TRACK 10 AUDIO
TITLE “Mittsommer (Akustik Version)”
PERFORMER “Schandmaul”
INDEX 01 30:21:68
TRACK 11 AUDIO
TITLE “Der Teufel … (Akustik Version)”
PERFORMER “Schandmaul”
INDEX 01 33:23:21
TRACK 12 AUDIO
TITLE “Mein Bildnis (Akustik Version)”
PERFORMER “Schandmaul”
INDEX 01 34:58:20
TRACK 13 AUDIO
TITLE “Marchenmond (Akustik Version)”
PERFORMER “Schandmaul”
INDEX 01 38:13:60


Leave a Reply

Your email address will not be published. Required fields are marked *

Enter the text from the image below
 

This site uses Akismet to reduce spam. Learn how your comment data is processed.