Schandmaul – So Weit, So Gut (Extended Edition)




Artist: Schandmaul
Year: 2013
Genre: Rock
Notes: Discogs
Add. Notes: Extended Edition
Cover incl.: Yes
Encoder: FLAC
Bitrate: ~1000 kBit/s (44.1 kHz/16 Bit/s)
Log & Cue incl.: Yes
Size: 952,14 MB
Password: “slam” (without ” “)


All Downloads/Hosters are compatible

Download 1
Turbobit.net
Rapidgator.net
UploadEver.com
KatFile.com
UsersDrive.com
Download 2
Turbobit.net
Rapidgator.net
UploadEver.com
KatFile.com
UsersDrive.com
Download 3
Turbobit.net
Rapidgator.net
UploadEver.com
KatFile.com
UsersDrive.com

Tracklist:

Die Neuaufnahmen
1-1 - Folk 'n' Roll - 3:35
1-2 - Herren Der Winde - 3:52
1-3 - Sigfrid Trilogie - 7:32
1-4 - Geisterschiff - 5:25
1-5 - Herz Aus Gold - 4:32
1-6 - Teufelsweib - 4:06
1-7 - Orientexpress - 3:25
1-8 - Die Goldene Kette - 5:03
1-9 - Der Clown - 5:21
1-10 - Vogelfrei - 5:11
1-11 - Trinklied - 3:19
1-12 - Walpurgisnacht - 4:03
1-13 - Der Letzte Tanz - 3:56
1-14 - Dein Anblick - 4:29
1-15 - Willst Du - 4:14
Die Originale
2-1 - Leb - 3:55
2-2 - Kein Weg Zu Weit - 4:07
2-3 - Lichtblick - 3:23
2-4 - Frei - 4:08
2-5 - Vor Der Schlacht - 3:57
2-6 - Traumtänzer - 3:47
2-7 - Auf Hoher See - 3:44
2-8 - Verbotener Kuss - 3:48
2-9 - Feuertanz - 5:04
2-10 - Anderswelt - 3:56
2-11 - Das Seemansgrab - 5:34
2-12 - Das Tuch - 4:43
2-13 - Wolfsmensch - 3:21
2-14 - Der Pakt - 2:55
2-15 - Prinzessin - 3:33
2-16 - Der Hofnarr (Live) - 5:01
2-17 - Sonnenstrahl (Live) - 4:02

EAC-Log, CUE-Sheed & NFO:

Click to open spoiler
Exact Audio Copy V1.0 beta 3 from 29. August 2011

EAC extraction logfile from 29. August 2013, 13:37

Schandmaul / So Weit, So Gut CD 1: Die Neueaufnahmen

Used drive : HP DVD Writer 1170d Adapter: 2 ID: 0

Read mode : Secure
Utilize accurate stream : Yes
Defeat audio cache : Yes
Make use of C2 pointers : No

Read offset correction : 6
Overread into Lead-In and Lead-Out : No
Fill up missing offset samples with silence : Yes
Delete leading and trailing silent blocks : No
Null samples used in CRC calculations : Yes
Used interface : Native Win32 interface for Win NT & 2000

Used output format : User Defined Encoder
Selected bitrate : 1024 kBit/s
Quality : High
Add ID3 tag : No
Command line compressor : C:\Program Files\Exact Audio Copy\FLAC\FLAC.EXE
Additional command line options : -V -8 -T “Date=%year%” -T “Genre=%genre%” -T”COMMENT=Ripped by Ungern666″ -8 -V %source%

TOC of the extracted CD

Track | Start | Length | Start sector | End sector
———————————————————
1 | 0:00.00 | 3:34.59 | 0 | 16108
2 | 3:34.59 | 3:52.00 | 16109 | 33508
3 | 7:26.59 | 7:32.08 | 33509 | 67416
4 | 14:58.67 | 5:25.07 | 67417 | 91798
5 | 20:23.74 | 4:32.00 | 91799 | 112198
6 | 24:55.74 | 4:06.05 | 112199 | 130653
7 | 29:02.04 | 3:25.37 | 130654 | 146065
8 | 32:27.41 | 5:03.28 | 146066 | 168818
9 | 37:30.69 | 5:20.51 | 168819 | 192869
10 | 42:51.45 | 5:10.55 | 192870 | 216174
11 | 48:02.25 | 3:19.21 | 216175 | 231120
12 | 51:21.46 | 4:03.09 | 231121 | 249354
13 | 55:24.55 | 3:55.59 | 249355 | 267038
14 | 59:20.39 | 4:28.69 | 267039 | 287207
15 | 63:49.33 | 4:13.42 | 287208 | 306224

Range status and errors

Selected range

Filename C:\EAC\Ungern666\Schandmaul – So Weit, So Gut CD 1- Die Neueaufnahmen.wav

Peak level 98.8 %
Extraction speed 5.1 X
Range quality 100.0 %
Test CRC 2DC9BD40
Copy CRC 2DC9BD40
Copy OK

No errors occurred

AccurateRip summary

Track 1 not present in database
Track 2 not present in database
Track 3 not present in database
Track 4 not present in database
Track 5 not present in database
Track 6 not present in database
Track 7 not present in database
Track 8 not present in database
Track 9 not present in database
Track 10 not present in database
Track 11 not present in database
Track 12 not present in database
Track 13 not present in database
Track 14 not present in database
Track 15 not present in database

None of the tracks are present in the AccurateRip database

End of status report

—- CUETools DB Plugin V2.1.5

[CTDB TOCID: WJfOtGdEjDC0Dh9qA.jcMGxLn0Q-] disk not present in database
Submit result: WJfOtGdEjDC0Dh9qA.jcMGxLn0Q- has been uploaded

==== Log checksum F6B2AD3D1B843FE7D9E974998F2C173F9331910C1F175807F3583260A5C9CABB ====

Exact Audio Copy V1.0 beta 3 from 29. August 2011

EAC extraction logfile from 29. August 2013, 14:16

Schandmaul / So Weit, So Gut CD 2: Die Originale

Used drive : HP DVD Writer 1170d Adapter: 2 ID: 0

Read mode : Secure
Utilize accurate stream : Yes
Defeat audio cache : Yes
Make use of C2 pointers : No

Read offset correction : 6
Overread into Lead-In and Lead-Out : No
Fill up missing offset samples with silence : Yes
Delete leading and trailing silent blocks : No
Null samples used in CRC calculations : Yes
Used interface : Native Win32 interface for Win NT & 2000

Used output format : User Defined Encoder
Selected bitrate : 1024 kBit/s
Quality : High
Add ID3 tag : No
Command line compressor : C:\Program Files\Exact Audio Copy\FLAC\FLAC.EXE
Additional command line options : -V -8 -T “Date=%year%” -T “Genre=%genre%” -T”COMMENT=Ripped by Ungern666″ -8 -V %source%

TOC of the extracted CD

Track | Start | Length | Start sector | End sector
———————————————————
1 | 0:00.00 | 3:55.19 | 0 | 17643
2 | 3:55.19 | 4:06.56 | 17644 | 36149
3 | 8:02.00 | 3:22.62 | 36150 | 51361
4 | 11:24.62 | 4:07.66 | 51362 | 69952
5 | 15:32.53 | 3:56.41 | 69953 | 87693
6 | 19:29.19 | 3:47.02 | 87694 | 104720
7 | 23:16.21 | 3:43.59 | 104721 | 121504
8 | 27:00.05 | 3:48.30 | 121505 | 138634
9 | 30:48.35 | 5:04.00 | 138635 | 161434
10 | 35:52.35 | 3:56.30 | 161435 | 179164
11 | 39:48.65 | 5:34.21 | 179165 | 204235
12 | 45:23.11 | 4:42.62 | 204236 | 225447
13 | 50:05.73 | 3:21.21 | 225448 | 240543
14 | 53:27.19 | 2:54.69 | 240544 | 253662
15 | 56:22.13 | 3:32.43 | 253663 | 269605
16 | 59:54.56 | 5:01.21 | 269606 | 292201
17 | 64:56.02 | 4:01.73 | 292202 | 310349

Range status and errors

Selected range

Filename C:\EAC\Ungern666\Schandmaul – So Weit, So Gut CD 2- Die Originale.wav

Peak level 98.6 %
Extraction speed 4.8 X
Range quality 100.0 %
Test CRC 9CB2DC50
Copy CRC 9CB2DC50
Copy OK

No errors occurred

AccurateRip summary

Track 1 not present in database
Track 2 not present in database
Track 3 not present in database
Track 4 not present in database
Track 5 not present in database
Track 6 not present in database
Track 7 not present in database
Track 8 not present in database
Track 9 not present in database
Track 10 not present in database
Track 11 not present in database
Track 12 not present in database
Track 13 not present in database
Track 14 not present in database
Track 15 not present in database
Track 16 not present in database
Track 17 not present in database

None of the tracks are present in the AccurateRip database

End of status report

—- CUETools DB Plugin V2.1.5

[CTDB TOCID: FGwqlv2TzdZIw6wwho_Vhy13a4Q-] disk not present in database
Submit result: FGwqlv2TzdZIw6wwho_Vhy13a4Q- has been uploaded

==== Log checksum 1744BD5F46707E5180D52055FC406C25CE0D9EBDF424CECF4751269C78B6D240 ====

REM DATE 2013
REM DISCID D70FF30F
REM COMMENT “ExactAudioCopy v1.0b3”
PERFORMER “Schandmaul”
TITLE “So Weit, So Gut CD 1: Die Neueaufnahmen”
FILE “Schandmaul – So Weit, So Gut CD 1- Die Neueaufnahmen.flac” WAVE
TRACK 01 AUDIO
TITLE “Folk, N’ Roll”
PERFORMER “Schandmaul”
INDEX 01 00:00:00
TRACK 02 AUDIO
TITLE “Herren Der Winde”
PERFORMER “Schandmaul”
INDEX 00 03:32:59
INDEX 01 03:34:59
TRACK 03 AUDIO
TITLE “Sigfrid Trilogie”
PERFORMER “Schandmaul”
INDEX 00 07:24:59
INDEX 01 07:26:59
TRACK 04 AUDIO
TITLE “Geisterschiff”
PERFORMER “Schandmaul”
INDEX 00 14:55:67
INDEX 01 14:58:67
TRACK 05 AUDIO
TITLE “Herz aus Gold”
PERFORMER “Schandmaul”
INDEX 00 20:21:74
INDEX 01 20:23:74
TRACK 06 AUDIO
TITLE “Teufelsweiss”
PERFORMER “Schandmaul”
INDEX 00 24:53:74
INDEX 01 24:55:74
TRACK 07 AUDIO
TITLE “Orientexpress”
PERFORMER “Schandmaul”
INDEX 00 29:00:04
INDEX 01 29:02:04
TRACK 08 AUDIO
TITLE “Die Goldene Kette”
PERFORMER “Schandmaul”
INDEX 00 32:25:41
INDEX 01 32:27:41
TRACK 09 AUDIO
TITLE “Der Clown”
PERFORMER “Schandmaul”
INDEX 00 37:27:69
INDEX 01 37:30:69
TRACK 10 AUDIO
TITLE “Vogelfrei”
PERFORMER “Schandmaul”
INDEX 00 42:49:45
INDEX 01 42:51:45
TRACK 11 AUDIO
TITLE “Trinklied”
PERFORMER “Schandmaul”
INDEX 00 48:00:25
INDEX 01 48:02:25
TRACK 12 AUDIO
TITLE “Walpurgisnacht”
PERFORMER “Schandmaul”
INDEX 00 51:19:46
INDEX 01 51:21:46
TRACK 13 AUDIO
TITLE “Der Letzte Tanz”
PERFORMER “Schandmaul”
INDEX 00 55:22:55
INDEX 01 55:24:55
TRACK 14 AUDIO
TITLE “Dein Anblick”
PERFORMER “Schandmaul”
INDEX 00 59:17:39
INDEX 01 59:20:39
TRACK 15 AUDIO
TITLE “Willst Du”
PERFORMER “Schandmaul”
INDEX 00 63:47:33
INDEX 01 63:49:33

REM DATE 2013
REM DISCID 02102A11
REM COMMENT “ExactAudioCopy v1.0b3”
PERFORMER “Schandmaul”
TITLE “So Weit, So Gut CD 2: Die Originale”
FILE “Schandmaul – So Weit, So Gut CD 2- Die Originale.flac” WAVE
TRACK 01 AUDIO
TITLE “Leb”
PERFORMER “Schandmaul”
INDEX 01 00:00:00
TRACK 02 AUDIO
TITLE “Kein Weg Zu Weit”
PERFORMER “Schandmaul”
INDEX 00 03:52:19
INDEX 01 03:55:19
TRACK 03 AUDIO
TITLE “Lichtblick”
PERFORMER “Schandmaul”
INDEX 00 07:59:00
INDEX 01 08:02:00
TRACK 04 AUDIO
TITLE “Frei”
PERFORMER “Schandmaul”
INDEX 00 11:22:63
INDEX 01 11:24:62
TRACK 05 AUDIO
TITLE “Vor Der Schlacht”
PERFORMER “Schandmaul”
INDEX 00 15:30:53
INDEX 01 15:32:53
TRACK 06 AUDIO
TITLE “Traumtanzer”
PERFORMER “Schandmaul”
INDEX 00 19:26:19
INDEX 01 19:29:19
TRACK 07 AUDIO
TITLE “Auf Hoher See”
PERFORMER “Schandmaul”
INDEX 00 23:14:21
INDEX 01 23:16:21
TRACK 08 AUDIO
TITLE “Verbotener Kuss”
PERFORMER “Schandmaul”
INDEX 00 26:58:05
INDEX 01 27:00:05
TRACK 09 AUDIO
TITLE “Feuertanz”
PERFORMER “Schandmaul”
INDEX 00 30:46:35
INDEX 01 30:48:35
TRACK 10 AUDIO
TITLE “Anderswelt”
PERFORMER “Schandmaul”
INDEX 00 35:50:35
INDEX 01 35:52:35
TRACK 11 AUDIO
TITLE “Das Seemannsgrab”
PERFORMER “Schandmaul”
INDEX 00 39:45:65
INDEX 01 39:48:65
TRACK 12 AUDIO
TITLE “Das Tuch”
PERFORMER “Schandmaul”
INDEX 00 45:20:11
INDEX 01 45:23:11
TRACK 13 AUDIO
TITLE “Wolfsmensch”
PERFORMER “Schandmaul”
INDEX 00 50:02:73
INDEX 01 50:05:73
TRACK 14 AUDIO
TITLE “Der Pakt”
PERFORMER “Schandmaul”
INDEX 00 53:25:19
INDEX 01 53:27:19
TRACK 15 AUDIO
TITLE “Prinzessin”
PERFORMER “Schandmaul”
INDEX 00 56:19:13
INDEX 01 56:22:13
TRACK 16 AUDIO
TITLE “Der Hofnarr (Live)”
PERFORMER “Schandmaul”
INDEX 00 59:51:56
INDEX 01 59:54:56
TRACK 17 AUDIO
TITLE “Sonnenstrahl (Live)”
PERFORMER “Schandmaul”
INDEX 00 64:53:02
INDEX 01 64:56:02


Leave a Reply

Your email address will not be published. Required fields are marked *

This site uses Akismet to reduce spam. Learn how your comment data is processed.