Schandmaul – Anderswelt




Artist: Schandmaul
Year: 2008
Genre: Rock
Notes: Discogs
Add. Notes:
Cover incl.: Yes
Encoder: FLAC
Bitrate: ~1000 kBit/s (44.1 kHz/16 Bit/s)
Log & Cue incl.: Yes
Size: 360,09 MB
Password: “slam” (without ” “)


All Downloads/Hosters are compatible

Download 1
Turbobit.net
Rapidgator.net
UploadEver.com
KatFile.com
UsersDrive.com
Download 2
Turbobit.net
Rapidgator.net
UploadEver.com
KatFile.com
UsersDrive.com
Download 3
Turbobit.net
Rapidgator.net
UploadEver.com
KatFile.com
UsersDrive.com

Tracklist:

1 - Frei - 4:07
2 - Krieger - 3:50
3 - Anderswelt - 3:55
4 - Königin - 4:06
5 - Zweite Seele - 3:40
6 - Die Braut - 4:51
7 - Missgeschick - 3:26
8 - Sirenen - 4:09
9 - Stunde Des Lichts - 3:47
10 - Fiddlefolkpunk - 1:49
11 - Augen Auf! - 3:26
12 - Wolfsmensch - 3:20
13 - Drei Lieder - 4:06
14 - Prinzessin - 3:30

EAC-Log, CUE-Sheed & NFO:

Click to open spoiler
Exact Audio Copy V0.99 prebeta 4 from 23. January 2008

Отчёт EAC об извлечении, выполненном 5. ноября 2008, 22:13

Schandmaul / Anderswelt

Дисковод: ASUS DRW-2014L1 Adapter: 1 ID: 1

Режим чтения : Достоверность
Использование точного потока : Да
Отключение кэша аудио : Да
Использование указателей C2 : Нет

Коррекция смещения при чтении : 6
Способность читать области Lead-in и Lead-out : Нет
Заполнение пропущенных сэмплов тишиной : Да
Удаление блоков с тишиной в начале и конце : Нет
При вычислениях CRC использовались нулевые сэмплы : Да
Интерфейс : Встроенный Win32-интерфейс для Win NT/2000

Выходной формат : Внутренние WAV-операции
Формат сэмплов : 44.100 Гц; 16 бит; стерео

TOC извлечённого CD

Трек | Старт | Длительность | Начальный сектор | Конечный сектор
———————————————————————
1 | 0:00.00 | 4:07.25 | 0 | 18549
2 | 4:07.25 | 3:50.03 | 18550 | 35802
3 | 7:57.28 | 3:55.11 | 35803 | 53438
4 | 11:52.39 | 4:06.10 | 53439 | 71898
5 | 15:58.49 | 3:39.41 | 71899 | 88364
6 | 19:38.15 | 4:51.09 | 88365 | 110198
7 | 24:29.24 | 3:26.15 | 110199 | 125663
8 | 27:55.39 | 4:08.54 | 125664 | 144317
9 | 32:04.18 | 3:47.17 | 144318 | 161359
10 | 35:51.35 | 1:49.34 | 161360 | 169568
11 | 37:40.69 | 3:25.48 | 169569 | 184991
12 | 41:06.42 | 3:20.32 | 184992 | 200023
13 | 44:26.74 | 4:06.19 | 200024 | 218492
14 | 48:33.18 | 3:29.47 | 218493 | 234214

Характеристики диапазона извлечения и сообщения об ошибках

Выбранный диапазон

Имя файла F:\music\Lossless\backup\Schandmaul – Anderswelt.wav

Пиковый уровень 98.1 %
Качество диапазона 100.0 %
CRC копии 830FA131
Копирование… OK

Ошибок не произошло

Конец отчёта

REM GENRE Folk/Rock
REM DATE 2008
REM DISCID D00C320E
REM COMMENT “ExactAudioCopy v0.99pb4”
PERFORMER “Schandmaul”
TITLE “Anderswelt”
FILE “Schandmaul – Anderswelt.flac” WAVE
TRACK 01 AUDIO
TITLE “Frei”
PERFORMER “Schandmaul”
INDEX 01 00:00:00
TRACK 02 AUDIO
TITLE “Krieger”
PERFORMER “Schandmaul”
INDEX 00 04:05:25
INDEX 01 04:07:25
TRACK 03 AUDIO
TITLE “Anderswelt”
PERFORMER “Schandmaul”
INDEX 00 07:54:28
INDEX 01 07:57:28
TRACK 04 AUDIO
TITLE “Königin”
PERFORMER “Schandmaul”
INDEX 00 11:50:39
INDEX 01 11:52:39
TRACK 05 AUDIO
TITLE “Zweite Seele”
PERFORMER “Schandmaul”
INDEX 00 15:55:49
INDEX 01 15:58:49
TRACK 06 AUDIO
TITLE “Die Braut”
PERFORMER “Schandmaul”
INDEX 00 19:35:15
INDEX 01 19:38:15
TRACK 07 AUDIO
TITLE “Missgeschick”
PERFORMER “Schandmaul”
INDEX 00 24:27:24
INDEX 01 24:29:24
TRACK 08 AUDIO
TITLE “Sirenen”
PERFORMER “Schandmaul”
INDEX 00 27:52:39
INDEX 01 27:55:39
TRACK 09 AUDIO
TITLE “Stunde des Lichts”
PERFORMER “Schandmaul”
INDEX 00 32:02:18
INDEX 01 32:04:18
TRACK 10 AUDIO
TITLE “Fiddlefolkpunk”
PERFORMER “Schandmaul”
INDEX 00 35:49:35
INDEX 01 35:51:35
TRACK 11 AUDIO
TITLE “Augen auf!”
PERFORMER “Schandmaul”
INDEX 00 37:37:69
INDEX 01 37:40:69
TRACK 12 AUDIO
TITLE “Wolfsmensch”
PERFORMER “Schandmaul”
INDEX 00 41:04:42
INDEX 01 41:06:42
TRACK 13 AUDIO
TITLE “Drei Lieder”
PERFORMER “Schandmaul”
INDEX 00 44:24:74
INDEX 01 44:26:74
TRACK 14 AUDIO
TITLE “Prinzessin”
PERFORMER “Schandmaul”
INDEX 00 48:30:18
INDEX 01 48:33:18


Leave a Reply

Your email address will not be published. Required fields are marked *

This site uses Akismet to reduce spam. Learn how your comment data is processed.