Santana – Zebop!




No Cover available

Artist: Santana
Year: 1981
Genre: Rock
Notes: Discogs
Add. Notes:
Watch Songs on: YouTube
Cover incl.: Yes
Encoder: FLAC
Bitrate: ~1000 kBit/s (44.1 kHz/16 Bit/s)
Log & Cue incl.: Yes/Yes
Size: 385,2 MB
Password: “slam” (without ” “)


All Downloads/Hosters are compatible

Download 1
KatFile.com
Turbobit.net
Rapidgator.net
FileFactory.com
Download 2
KatFile.com
Turbobit.net
Rapidgator.net
FileFactory.com

Tracklist:

1 Changes 4:27
2 É Papa Ré 4:32
3 Primera Invasion 2:08
4 Searchin 3:54
5 Over And Over 4:48
6 Winning 3:28
7 Tales Of Kilimanjaro 3:24
8 The Sensitive Kind 3:32
9 American Gypsy 3:39
10 I Love You Much Too Much 4:42
11 Brightest Star 4:49
12 Hannibal 3:41

EAC-Log, CUE-Sheed & NFO:

Click to open spoiler
Exact Audio Copy V1.0 beta 3 from 29. August 2011

Отчёт EAC об извлечении, выполненном 27. марта 2013, 13:45

Santana / Zebop!

Дисковод: SONY CD-RW CRX230ED Adapter: 0 ID: 1

Режим чтения : Достоверность
Использование точного потока : Да
Отключение кэша аудио : Да
Использование указателей C2 : Нет

Коррекция смещения при чтении : 6
Способность читать области Lead-in и Lead-out : Нет
Заполнение пропущенных сэмплов тишиной : Да
Удаление блоков с тишиной в начале и конце : Нет
При вычислениях CRC использовались нулевые сэмплы : Да
Интерфейс : Установленный внешний ASPI-интерфейс

Выходной формат : Внутренние WAV-операции
Формат сэмплов : 44.100 Гц; 16 бит; стерео

TOC извлечённого CD

Трек | Старт | Длительность | Начальный сектор | Конечный сектор
———————————————————————
1 | 0:00.00 | 4:28.70 | 0 | 20169
2 | 4:28.70 | 4:32.55 | 20170 | 40624
3 | 9:01.50 | 2:09.37 | 40625 | 50336
4 | 11:11.12 | 3:55.63 | 50337 | 68024
5 | 15:07.00 | 4:49.62 | 68025 | 89761
6 | 19:56.62 | 3:29.63 | 89762 | 105499
7 | 23:26.50 | 3:26.25 | 105500 | 120974
8 | 26:53.00 | 3:33.17 | 120975 | 136966
9 | 30:26.17 | 3:39.73 | 136967 | 153464
10 | 34:06.15 | 4:44.17 | 153465 | 174781
11 | 38:50.32 | 4:50.63 | 174782 | 196594
12 | 43:41.20 | 3:42.55 | 196595 | 213299

Характеристики диапазона извлечения и сообщения об ошибках

Выбранный диапазон

Имя файла E:\MusicCD\Torrent\Santana\Santana – Zebop!\Santana – Zebop!.wav

Пиковый уровень 94.0 %
Скорость извлечения 7.4 X
Качество диапазона 100.0 %
CRC теста F11A3F43
CRC копии F11A3F43
Копирование… OK

Ошибок не произошло

AccurateRip: сводка

Трек 1 : извлечено точно (доверие 4) [85F09849] (AR v2)
Трек 2 : извлечено точно (доверие 4) [AF507D5E] (AR v2)
Трек 3 : извлечено точно (доверие 4) [66844FC5] (AR v2)
Трек 4 : извлечено точно (доверие 4) [8AC25BF6] (AR v2)
Трек 5 : извлечено точно (доверие 4) [050909D9] (AR v2)
Трек 6 : извлечено точно (доверие 5) [3B0E5EBD] (AR v2)
Трек 7 : извлечено точно (доверие 4) [9541BAEF] (AR v2)
Трек 8 : извлечено точно (доверие 4) [D61B80C1] (AR v2)
Трек 9 : извлечено точно (доверие 4) [D256B2AE] (AR v2)
Трек 10 : извлечено точно (доверие 4) [7C89D714] (AR v2)
Трек 11 : извлечено точно (доверие 4) [9328904F] (AR v2)
Трек 12 : извлечено точно (доверие 4) [ED79F366] (AR v2)

Все треки извлечены точно

Конец отчёта

==== Контрольная сумма отчёта 7E2D0E5C35DE3BBDF12342A4F83A4C35E0CC6A5F8E4A077F9607E4852F7F5C65 ====

REM GENRE Fusion
REM DATE 1981
REM DISCID 9E0B1C0C
REM COMMENT “ExactAudioCopy v1.0b3”
PERFORMER “Santana”
TITLE “Zebop!”
FILE “Santana – Zebop!.flac” WAVE
TRACK 01 AUDIO
TITLE “Changes”
PERFORMER “Santana”
INDEX 01 00:00:00
TRACK 02 AUDIO
TITLE “E Papa Re”
PERFORMER “Santana”
INDEX 01 04:28:70
TRACK 03 AUDIO
TITLE “Primera Invasion”
PERFORMER “Santana”
INDEX 01 09:01:50
TRACK 04 AUDIO
TITLE “Searchin'”
PERFORMER “Santana”
INDEX 01 11:11:12
TRACK 05 AUDIO
TITLE “Over And Over”
PERFORMER “Santana”
INDEX 01 15:07:00
TRACK 06 AUDIO
TITLE “Winning”
PERFORMER “Santana”
INDEX 01 19:56:62
TRACK 07 AUDIO
TITLE “Tales Of Kilimanjaro”
PERFORMER “Santana”
INDEX 01 23:26:50
TRACK 08 AUDIO
TITLE “The Sensitive Kind”
PERFORMER “Santana”
INDEX 01 26:53:00
TRACK 09 AUDIO
TITLE “American Gypsy”
PERFORMER “Santana”
INDEX 01 30:26:17
TRACK 10 AUDIO
TITLE “I Love You Much Too Much”
PERFORMER “Santana”
INDEX 01 34:06:15
TRACK 11 AUDIO
TITLE “Brightest Star”
PERFORMER “Santana”
INDEX 01 38:50:32
TRACK 12 AUDIO
TITLE “Hannibal”
PERFORMER “Santana”
INDEX 01 43:41:20


Leave a Reply

Your email address will not be published. Required fields are marked *

This site uses Akismet to reduce spam. Learn how your comment data is processed.