Santana – Welcome (Reissue)




No Cover available

Artist: Santana
Year: 1973/1999
Genre: Rock
Notes: Discogs
Add. Notes: Reissue
Watch Songs on: YouTube
Cover incl.: Yes
Encoder: FLAC
Bitrate: ~1000 kBit/s (44.1 kHz/16 Bit/s)
Log & Cue incl.: Yes/Yes
Size: 384,9 MB
Password: “slam” (without ” “)


All Downloads/Hosters are compatible

Download 1
KatFile.com
Turbobit.net
FileFactory.com
Rapidgator.net
Download 2
KatFile.com
Turbobit.net
FileFactory.com
Rapidgator.net

Tracklist:

1 Going Home 4:12
2 Love, Devotion & Surrender 3:38
3 Samba De Sausalito 3:11
4 When I Look Into Your Eyes 5:52
5 Yours Is The Light 5:45
6 Mother Africa 5:55
7 Light Of Life 3:52
8 Flame-Sky 11:32
9 Welcome 6:29

EAC-Log, CUE-Sheed & NFO:

Click to open spoiler
Exact Audio Copy V1.0 beta 3 from 29. August 2011

Отчёт EAC об извлечении, выполненном 26. марта 2013, 14:15

Santana / Welcome

Дисковод: SONY CD-RW CRX230ED Adapter: 0 ID: 1

Режим чтения : Достоверность
Использование точного потока : Да
Отключение кэша аудио : Да
Использование указателей C2 : Нет

Коррекция смещения при чтении : 6
Способность читать области Lead-in и Lead-out : Нет
Заполнение пропущенных сэмплов тишиной : Да
Удаление блоков с тишиной в начале и конце : Нет
При вычислениях CRC использовались нулевые сэмплы : Да
Интерфейс : Установленный внешний ASPI-интерфейс

Выходной формат : Внутренние WAV-операции
Формат сэмплов : 44.100 Гц; 16 бит; стерео

TOC извлечённого CD

Трек | Старт | Длительность | Начальный сектор | Конечный сектор
———————————————————————
1 | 0:00.00 | 4:11.60 | 0 | 18884
2 | 4:11.60 | 3:38.27 | 18885 | 35261
3 | 7:50.12 | 3:11.08 | 35262 | 49594
4 | 11:01.20 | 5:52.27 | 49595 | 76021
5 | 16:53.47 | 5:45.15 | 76022 | 101911
6 | 22:38.62 | 5:55.28 | 101912 | 128564
7 | 28:34.15 | 3:52.32 | 128565 | 145996
8 | 32:26.47 | 11:31.73 | 145997 | 197894
9 | 43:58.45 | 6:29.22 | 197895 | 227091

Характеристики диапазона извлечения и сообщения об ошибках

Выбранный диапазон

Имя файла E:\MusicCD\Torrent\Santana\Santana – Welcome\Santana – Welcome.wav

Пиковый уровень 100.0 %
Скорость извлечения 5.9 X
Качество диапазона 100.0 %
CRC теста 0AC3DD7B
CRC копии 0AC3DD7B
Копирование… OK

Ошибок не произошло

AccurateRip: сводка

Трек 1 : извлечено точно (доверие 3) [31D451B1] (AR v2)
Трек 2 : извлечено точно (доверие 3) [03984861] (AR v2)
Трек 3 : извлечено точно (доверие 3) [F93BC5CD] (AR v2)
Трек 4 : извлечено точно (доверие 3) [0F4EC9FA] (AR v2)
Трек 5 : извлечено точно (доверие 3) [86DBD6E2] (AR v2)
Трек 6 : извлечено точно (доверие 3) [AF4DBD4F] (AR v2)
Трек 7 : извлечено точно (доверие 3) [4ADB77D5] (AR v2)
Трек 8 : извлечено точно (доверие 3) [0F91B13F] (AR v2)
Трек 9 : извлечено точно (доверие 3) [87FBD6C3] (AR v2)

Все треки извлечены точно

Конец отчёта

==== Контрольная сумма отчёта F626FC607EEDA631071479984981322BF2DB04E2909578A8A965765C315156FE ====

REM GENRE Rock
REM DATE 1973
REM DISCID 6A0BD309
REM COMMENT “ExactAudioCopy v1.0b3”
PERFORMER “Santana”
TITLE “Welcome”
FILE “Santana – Welcome.flac” WAVE
TRACK 01 AUDIO
TITLE “Going Home”
PERFORMER “Santana”
INDEX 01 00:00:00
TRACK 02 AUDIO
TITLE “Love, Devotion & Surrender”
PERFORMER “Santana”
INDEX 01 04:11:60
TRACK 03 AUDIO
TITLE “Samba De Sausalito”
PERFORMER “Santana”
INDEX 01 07:50:12
TRACK 04 AUDIO
TITLE “When I Look Into Your Eyes”
PERFORMER “Santana”
INDEX 01 11:01:20
TRACK 05 AUDIO
TITLE “Yours Is The Light”
PERFORMER “Santana”
INDEX 01 16:53:47
TRACK 06 AUDIO
TITLE “Mother Africa”
PERFORMER “Santana”
INDEX 01 22:38:62
TRACK 07 AUDIO
TITLE “Light Of Life”
PERFORMER “Santana”
INDEX 01 28:34:15
TRACK 08 AUDIO
TITLE “Flame-Sky”
PERFORMER “Santana”
INDEX 01 32:26:47
TRACK 09 AUDIO
TITLE “Welcome”
PERFORMER “Santana”
INDEX 01 43:58:45


Leave a Reply

Your email address will not be published. Required fields are marked *

Enter the text from the image below
 

This site uses Akismet to reduce spam. Learn how your comment data is processed.