Santana – Shape Shifter




No Cover available

Artist: Santana
Year: 2012
Genre: Rock
Notes: Discogs
Add. Notes:
Watch Songs on: YouTube
Cover incl.: Yes
Encoder: FLAC
Bitrate: ~1000 kBit/s (44.1 kHz/16 Bit/s)
Log & Cue incl.: Yes/Yes
Size: 473,5 MB
Password: “slam” (without ” “)


All Downloads/Hosters are compatible

Download 1
KatFile.com
Turbobit.net
Rapidgator.net
FileFactory.com
Download 2
KatFile.com
Turbobit.net
Rapidgator.net
FileFactory.com

Tracklist:

1 Shape Shifter 6:16
2 Dom 3:51
3 Nomad 4:48
4 Metatron 2:39
5 Angelica Faith 5:03
6 Never The Same Again 5:01
7 In The Light Of A New Day 5:06
8 Spark Of The Divine 1:03
9 Macumba In Budapest 4:01
10 Mr. Szabo 6:20
11 Eres La Luz 4:51
12 Canela 5:22
13 Ah, Sweet Dancer 3:08

EAC-Log, CUE-Sheed & NFO:

Click to open spoiler
Exact Audio Copy V1.0 beta 3 from 29. August 2011

Отчёт EAC об извлечении, выполненном 29. марта 2013, 14:57

Santana / Shape Shifter

Дисковод: SONY CD-RW CRX230ED Adapter: 0 ID: 1

Режим чтения : Достоверность
Использование точного потока : Да
Отключение кэша аудио : Да
Использование указателей C2 : Нет

Коррекция смещения при чтении : 6
Способность читать области Lead-in и Lead-out : Нет
Заполнение пропущенных сэмплов тишиной : Да
Удаление блоков с тишиной в начале и конце : Нет
При вычислениях CRC использовались нулевые сэмплы : Да
Интерфейс : Установленный внешний ASPI-интерфейс

Выходной формат : Внутренние WAV-операции
Формат сэмплов : 44.100 Гц; 16 бит; стерео

TOC извлечённого CD

Трек | Старт | Длительность | Начальный сектор | Конечный сектор
———————————————————————
1 | 0:00.00 | 6:15.42 | 0 | 28166
2 | 6:15.42 | 3:51.03 | 28167 | 45494
3 | 10:06.45 | 4:48.36 | 45495 | 67130
4 | 14:55.06 | 2:38.48 | 67131 | 79028
5 | 17:33.54 | 5:02.54 | 79029 | 101732
6 | 22:36.33 | 5:01.24 | 101733 | 124331
7 | 27:37.57 | 5:06.33 | 124332 | 147314
8 | 32:44.15 | 1:02.60 | 147315 | 152024
9 | 33:47.00 | 4:00.72 | 152025 | 170096
10 | 37:47.72 | 6:19.70 | 170097 | 198591
11 | 44:07.67 | 4:50.48 | 198592 | 220389
12 | 48:58.40 | 5:22.22 | 220390 | 244561
13 | 54:20.62 | 3:08.27 | 244562 | 258688

Характеристики диапазона извлечения и сообщения об ошибках

Выбранный диапазон

Имя файла E:\MusicCD\Torrent\Santana\Santana – Shape Shifter\Santana – Shape Shifter.wav

Пиковый уровень 100.0 %
Скорость извлечения 8.0 X
Качество диапазона 100.0 %
CRC теста 35459A5E
CRC копии 35459A5E
Копирование… OK

Ошибок не произошло

AccurateRip: сводка

Трек 1 : извлечено точно (доверие 8) [F7A08D4D] (AR v2)
Трек 2 : извлечено точно (доверие 8) [E392A6D1] (AR v2)
Трек 3 : извлечено точно (доверие 8) [2E95B15C] (AR v2)
Трек 4 : извлечено точно (доверие 8) [D3781A50] (AR v2)
Трек 5 : извлечено точно (доверие 8) [8CB17C1F] (AR v2)
Трек 6 : извлечено точно (доверие 9) [E00BA330] (AR v2)
Трек 7 : извлечено точно (доверие 9) [51080E15] (AR v2)
Трек 8 : извлечено точно (доверие 9) [54479742] (AR v2)
Трек 9 : извлечено точно (доверие 9) [565AD748] (AR v2)
Трек 10 : извлечено точно (доверие 9) [8ACA8688] (AR v2)
Трек 11 : извлечено точно (доверие 9) [25CDE267] (AR v2)
Трек 12 : извлечено точно (доверие 9) [573C8E6D] (AR v2)
Трек 13 : извлечено точно (доверие 8) [DB57A761] (AR v2)

Все треки извлечены точно

Конец отчёта

==== Контрольная сумма отчёта 89A766754BA01B5D0D5351AF264741EB792B2598F9A17E1751A6E007310AC1E6 ====

REM GENRE Rock
REM DATE 2012
REM DISCID D10D790D
REM COMMENT “ExactAudioCopy v1.0b3”
PERFORMER “Santana”
TITLE “Shape Shifter”
FILE “Santana – Shape Shifter.flac” WAVE
TRACK 01 AUDIO
TITLE “Shape Shifter”
PERFORMER “Santana”
INDEX 01 00:00:00
TRACK 02 AUDIO
TITLE “Dom”
PERFORMER “Santana”
INDEX 00 06:13:42
INDEX 01 06:15:42
TRACK 03 AUDIO
TITLE “Nomad”
PERFORMER “Santana”
INDEX 00 10:04:45
INDEX 01 10:06:45
TRACK 04 AUDIO
TITLE “Metatron”
PERFORMER “Santana”
INDEX 00 14:53:06
INDEX 01 14:55:06
TRACK 05 AUDIO
TITLE “Angelica Faith”
PERFORMER “Santana”
INDEX 00 17:31:54
INDEX 01 17:33:54
TRACK 06 AUDIO
TITLE “Never The Same Again”
PERFORMER “Santana”
INDEX 00 22:34:33
INDEX 01 22:36:33
TRACK 07 AUDIO
TITLE “In The Light Of A New Day”
PERFORMER “Santana”
INDEX 00 27:35:57
INDEX 01 27:37:57
TRACK 08 AUDIO
TITLE “Spark Of The Divine”
PERFORMER “Santana”
INDEX 00 32:42:15
INDEX 01 32:44:15
TRACK 09 AUDIO
TITLE “Macumba In Budapest”
PERFORMER “Santana”
INDEX 00 33:45:00
INDEX 01 33:47:00
TRACK 10 AUDIO
TITLE “Mr. Szabo”
PERFORMER “Santana”
INDEX 00 37:45:72
INDEX 01 37:47:72
TRACK 11 AUDIO
TITLE “Eres La Luz”
PERFORMER “Santana”
INDEX 00 44:05:67
INDEX 01 44:07:67
TRACK 12 AUDIO
TITLE “Canela”
PERFORMER “Santana”
INDEX 00 48:56:40
INDEX 01 48:58:40
TRACK 13 AUDIO
TITLE “Ah, Sweet Dancer”
PERFORMER “Santana”
INDEX 00 54:18:62
INDEX 01 54:20:62


Leave a Reply

Your email address will not be published. Required fields are marked *

Enter the text from the image below
 

This site uses Akismet to reduce spam. Learn how your comment data is processed.