Santana – Shaman




No Cover available

Artist: Santana
Year: 2002
Genre: Rock
Notes: Discogs
Add. Notes:
Watch Songs on: YouTube
Cover incl.: Yes
Encoder: FLAC
Bitrate: ~1000 kBit/s (44.1 kHz/16 Bit/s)
Log & Cue incl.: Yes/Yes
Size: 730,4 MB
Password: “slam” (without ” “)


All Downloads/Hosters are compatible

Download 1
KatFile.com
Turbobit.net
Rapidgator.net
FileFactory.com
Download 2
KatFile.com
Turbobit.net
Rapidgator.net
FileFactory.com

Tracklist:

1. Santana - Adouma - 4:15
2. Santana Featuring Musiq - Nothing At All - 4:29
3. Santana Featuring Michelle Branch - The Game Of Love - 4:14
4. Santana Featuring Seal - You Are My Kind - 4:20
5. Santana Featuring Macy Gray - Amoré (Sexo) - 3:52
6. Santana - Foo Foo - 6:29
7. Santana - Victory Is Won - 5:20
8. Santana Featuring P.O.D. - America - 4:35
9. Santana Featuring Citizen Cope - Sideways - 4:42
10. Santana Featuring Chad Kroeger - Why Don't You & I - 4:34
11. Santana Featuring Dido - Feels Like Fire - 4:40
12. Santana - Let Me Love You Tonight - 4:32
13. Santana - Aye Aye Aye - 4:46
14. Santana Featuring Alejandro Lerner - Hoy Es Adios - 4:37
15. Santana Featuring Ozomatli - One Of These Days - 5:52
16. Santana Featuring Placido Domingo - Novus - 4:10

EAC-Log, CUE-Sheed & NFO:

Click to open spoiler
Exact Audio Copy V1.0 beta 3 from 29. August 2011

Отчёт EAC об извлечении, выполненном 28. марта 2013, 21:53

Santana / Shaman

Дисковод: SONY CD-RW CRX230ED Adapter: 0 ID: 1

Режим чтения : Достоверность
Использование точного потока : Да
Отключение кэша аудио : Да
Использование указателей C2 : Нет

Коррекция смещения при чтении : 6
Способность читать области Lead-in и Lead-out : Нет
Заполнение пропущенных сэмплов тишиной : Да
Удаление блоков с тишиной в начале и конце : Нет
При вычислениях CRC использовались нулевые сэмплы : Да
Интерфейс : Установленный внешний ASPI-интерфейс

Выходной формат : Внутренние WAV-операции
Формат сэмплов : 44.100 Гц; 16 бит; стерео

TOC извлечённого CD

Трек | Старт | Длительность | Начальный сектор | Конечный сектор
———————————————————————
1 | 0:00.00 | 4:15.10 | 0 | 19134
2 | 4:15.10 | 4:28.62 | 19135 | 39296
3 | 8:43.72 | 4:14.35 | 39297 | 58381
4 | 12:58.32 | 4:19.60 | 58382 | 77866
5 | 17:18.17 | 3:51.65 | 77867 | 95256
6 | 21:10.07 | 6:28.63 | 95257 | 124419
7 | 27:38.70 | 5:20.47 | 124420 | 148466
8 | 32:59.42 | 4:35.05 | 148467 | 169096
9 | 37:34.47 | 4:41.43 | 169097 | 190214
10 | 42:16.15 | 4:34.27 | 190215 | 210791
11 | 46:50.42 | 4:39.70 | 210792 | 231786
12 | 51:30.37 | 5:34.70 | 231787 | 256906
13 | 57:05.32 | 4:45.63 | 256907 | 278344
14 | 61:51.20 | 4:37.32 | 278345 | 299151
15 | 66:28.52 | 5:51.68 | 299152 | 325544
16 | 72:20.45 | 4:10.45 | 325545 | 344339
17 | 79:03.15 | 0:10.18 | 355740 | 356507

Характеристики диапазона извлечения и сообщения об ошибках

Выбранный диапазон

Имя файла E:\MusicCD\Torrent\Santana\Santana – Shaman\Santana – Shaman.wav

Пиковый уровень 100.0 %
Скорость извлечения 9.2 X
Качество диапазона 99.9 %
CRC теста 62FCD401
CRC копии 62FCD401
Копирование… OK

Ошибок не произошло

AccurateRip: сводка

Трек 1 : извлечено точно (доверие 52) [72D293EF] (AR v2)
Трек 2 : извлечено точно (доверие 51) [3B1052B6] (AR v2)
Трек 3 : извлечено точно (доверие 53) [AB07F2DD] (AR v2)
Трек 4 : извлечено точно (доверие 51) [90A5BE48] (AR v2)
Трек 5 : извлечено точно (доверие 52) [B625FA5B] (AR v2)
Трек 6 : извлечено точно (доверие 51) [034D5E7F] (AR v2)
Трек 7 : извлечено точно (доверие 51) [D5144325] (AR v2)
Трек 8 : извлечено точно (доверие 51) [E09E041A] (AR v2)
Трек 9 : извлечено точно (доверие 51) [D5894FA9] (AR v2)
Трек 10 : извлечено точно (доверие 52) [494702AA] (AR v2)
Трек 11 : извлечено точно (доверие 51) [83A2AFF2] (AR v2)
Трек 12 : извлечено точно (доверие 51) [8AB1431A] (AR v2)
Трек 13 : извлечено точно (доверие 51) [0C986A0D] (AR v2)
Трек 14 : извлечено точно (доверие 50) [AAFA2EBE] (AR v2)
Трек 15 : извлечено точно (доверие 49) [146B9883] (AR v2)
Трек 16 : извлечено точно (доверие 50) [3B1FD2CD] (AR v2)

Все треки извлечены точно

Конец отчёта

==== Контрольная сумма отчёта 2B4D1338A54E1210EBA6F37B73F610BF07A7E2B7B8D01C93A922DFB1AF179DCA ====

REM GENRE Latin
REM DATE 2002
REM DISCID EC129111
REM COMMENT “ExactAudioCopy v1.0b3”
PERFORMER “Santana”
TITLE “Shaman”
FILE “Santana – Shaman.flac” WAVE
TRACK 01 AUDIO
TITLE “Adouma”
PERFORMER “Santana”
INDEX 01 00:00:00
TRACK 02 AUDIO
TITLE “Nothing At All (featuring Musiq)”
PERFORMER “Santana”
INDEX 01 04:15:10
TRACK 03 AUDIO
TITLE “The Game Of Love (featuring Michelle Branch)”
PERFORMER “Santana”
INDEX 01 08:43:72
TRACK 04 AUDIO
TITLE “You Are My Kind (featuring Seal)”
PERFORMER “Santana”
INDEX 01 12:58:32
TRACK 05 AUDIO
TITLE “Amore (Sexo) (featuring Macy Gray)”
PERFORMER “Santana”
INDEX 00 17:15:20
INDEX 01 17:18:17
TRACK 06 AUDIO
TITLE “Foo Foo”
PERFORMER “Santana”
INDEX 01 21:10:07
TRACK 07 AUDIO
TITLE “Victory Is Won”
PERFORMER “Santana”
INDEX 00 27:37:60
INDEX 01 27:38:70
TRACK 08 AUDIO
TITLE “America (featuring P.O.D.)”
PERFORMER “Santana”
INDEX 01 32:59:42
TRACK 09 AUDIO
TITLE “Sideways (featuring Citizen Cope)”
PERFORMER “Santana”
INDEX 01 37:34:47
TRACK 10 AUDIO
TITLE “Why Don’t You & I (featuring Chad Kroeger)”
PERFORMER “Santana”
INDEX 00 42:14:60
INDEX 01 42:16:15
TRACK 11 AUDIO
TITLE “Feels Like Fire (featuring Dido)”
PERFORMER “Santana”
INDEX 01 46:50:42
TRACK 12 AUDIO
TITLE “Let Me Love You Tonight”
PERFORMER “Santana”
INDEX 01 51:30:37
TRACK 13 AUDIO
TITLE “Aye Aye Aye”
PERFORMER “Santana”
INDEX 01 57:05:32
TRACK 14 AUDIO
TITLE “Hoy Es Adios (featuring Alejandro Lerner)”
PERFORMER “Santana”
INDEX 00 61:48:22
INDEX 01 61:51:20
TRACK 15 AUDIO
TITLE “One Of These Days (featuring Ozomatli)”
PERFORMER “Santana”
INDEX 01 66:28:52
TRACK 16 AUDIO
TITLE “Novus (featuring Placido Domingo)”
PERFORMER “Santana”
INDEX 01 72:20:45


Leave a Reply

Your email address will not be published. Required fields are marked *

This site uses Akismet to reduce spam. Learn how your comment data is processed.