Santana – Santana’s Greatest Hits




No Cover available

Artist: Santana
Year: 1974/1985
Genre: Rock
Notes: Discogs
Add. Notes:
Watch Songs on: YouTube
Cover incl.: Yes
Encoder: FLAC
Bitrate: ~800 kBit/s (44.1 kHz/16 Bit/s)
Log & Cue incl.: Yes/Yes
Size: 264,7 MB
Password: “slam” (without ” “)


All Downloads/Hosters are compatible

Download 1
KatFile.com
Turbobit.net
Rapidgator.net
FileFactory.com
Download 2
KatFile.com
Turbobit.net
Rapidgator.net
FileFactory.com

Tracklist:

1 Evil Ways 3:00
2 Jingo 2:44
3 Hope You're Feeling Better 4:10
4 Samba Pa Ti 4:47
5 Persuasion 2:34
6 Black Magic Woman 3:17
7 Oye Como Va 4:19
8 Everything's Coming Our Way 3:16
9 Se A Cabo 2:51
10 Everybody's Everything 3:31

EAC-Log, CUE-Sheed & NFO:

Click to open spoiler
Exact Audio Copy V1.3 from 2. September 2016

EAC extraction logfile from 17. January 2019, 13:32

Santana / Santana’s Greatest Hits

Used drive : SONY BD RW BDX-S600U Adapter: 1 ID: 2

Read mode : Secure
Utilize accurate stream : Yes
Defeat audio cache : Yes
Make use of C2 pointers : No

Read offset correction : 48
Overread into Lead-In and Lead-Out : No
Fill up missing offset samples with silence : Yes
Delete leading and trailing silent blocks : No
Null samples used in CRC calculations : Yes
Used interface : Native Win32 interface for Win NT & 2000

Used output format : User Defined Encoder
Selected bitrate : 896 kBit/s
Quality : High
Add ID3 tag : No
Command line compressor : C:\Program Files (x86)\Exact Audio Copy\FLAC\FLAC.EXE
Additional command line options : -V -8 -T “Date=%year%” -T “Genre=%genre%” %source%

TOC of the extracted CD

Track | Start | Length | Start sector | End sector
———————————————————
1 | 0:00.37 | 3:03.13 | 37 | 13774
2 | 3:03.50 | 2:52.25 | 13775 | 26699
3 | 5:56.00 | 4:13.50 | 26700 | 45724
4 | 10:09.50 | 4:42.25 | 45725 | 66899
5 | 14:52.00 | 2:36.32 | 66900 | 78631
6 | 17:28.32 | 3:18.08 | 78632 | 93489
7 | 20:46.40 | 4:18.22 | 93490 | 112861
8 | 25:04.62 | 3:18.03 | 112862 | 127714
9 | 28:22.65 | 2:51.07 | 127715 | 140546
10 | 31:13.72 | 3:31.28 | 140547 | 156399

Range status and errors

Selected range

Filename K:\Santana\Compilations\1974. Santana – Santana’s Greatest Hits (Colambia, CK 33050, Japan)\Santana – Santana’s Greatest Hits.wav

Peak level 100.0 %
Extraction speed 9.2 X
Range quality 99.9 %
Test CRC 5ED9D755
Copy CRC 5ED9D755
Copy OK

No errors occurred

AccurateRip summary

Track 1 accurately ripped (confidence 6) [B8EF8DB1] (AR v2)
Track 2 accurately ripped (confidence 6) [18D756B1] (AR v2)
Track 3 accurately ripped (confidence 6) [3D0CC174] (AR v2)
Track 4 accurately ripped (confidence 6) [D2E2181C] (AR v2)
Track 5 accurately ripped (confidence 6) [507B328A] (AR v2)
Track 6 accurately ripped (confidence 6) [097B5726] (AR v2)
Track 7 accurately ripped (confidence 6) [7A4ECD83] (AR v2)
Track 8 accurately ripped (confidence 6) [231E4BAC] (AR v2)
Track 9 accurately ripped (confidence 6) [4DFBEAA9] (AR v2)
Track 10 accurately ripped (confidence 6) [482ED280] (AR v2)

All tracks accurately ripped

End of status report

—- CUETools DB Plugin V2.1.6

[CTDB TOCID: cRUJFVnMr8oOHMcV_V9NaOrpOnI-] found
Submit result: cRUJFVnMr8oOHMcV_V9NaOrpOnI- has been confirmed
Track | CTDB Status
1 | (11/14) Accurately ripped, or (2/14) differs in 2 samples @00:07:59
2 | (14/14) Accurately ripped
3 | (14/14) Accurately ripped
4 | (11/14) Accurately ripped, or (2/14) differs in 2 samples @00:48:07
5 | (14/14) Accurately ripped
6 | (14/14) Accurately ripped
7 | (13/14) Accurately ripped
8 | (11/14) Accurately ripped, or (2/14) differs in 2 samples @02:53:05
9 | (14/14) Accurately ripped
10 | (14/14) Accurately ripped

==== Log checksum AD0A05BF7B3E5AF5E34675EFB61F46E2FBCE06B3676F3568475CE65D4DA4BA40 ====

REM GENRE Rock
REM DATE 1973
REM DISCID 7F08250A
REM COMMENT “ExactAudioCopy v1.3”
PERFORMER “Santana”
TITLE “Santana’s Greatest Hits”
REM COMPOSER “”
FILE “Santana – Santana’s Greatest Hits.flac” WAVE
TRACK 01 AUDIO
TITLE “Evil Ways”
PERFORMER “Santana”
REM COMPOSER “”
INDEX 00 00:00:00
INDEX 01 00:00:37
TRACK 02 AUDIO
TITLE “Jingo”
PERFORMER “Santana”
REM COMPOSER “”
INDEX 00 03:01:08
INDEX 01 03:03:50
TRACK 03 AUDIO
TITLE “Hope You’re Feeling Better”
PERFORMER “Santana”
REM COMPOSER “”
INDEX 00 05:52:13
INDEX 01 05:56:00
TRACK 04 AUDIO
TITLE “Samba Pa Ti”
PERFORMER “Santana”
REM COMPOSER “”
INDEX 00 10:07:18
INDEX 01 10:09:50
TRACK 05 AUDIO
TITLE “Persuasion”
PERFORMER “Santana”
REM COMPOSER “”
INDEX 00 14:47:38
INDEX 01 14:52:00
TRACK 06 AUDIO
TITLE “Black Magic Woman”
PERFORMER “Santana”
REM COMPOSER “”
INDEX 00 17:25:25
INDEX 01 17:28:32
TRACK 07 AUDIO
TITLE “Oye Como Va”
PERFORMER “Santana”
REM COMPOSER “”
INDEX 00 20:43:63
INDEX 01 20:46:40
TRACK 08 AUDIO
TITLE “Everything’s Coming Our Way”
PERFORMER “Santana”
REM COMPOSER “”
INDEX 00 25:02:25
INDEX 01 25:04:62
TRACK 09 AUDIO
TITLE “Se A Cabo”
PERFORMER “Santana”
REM COMPOSER “”
INDEX 00 28:19:68
INDEX 01 28:22:65
TRACK 10 AUDIO
TITLE “Everybody’s Everyhing”
PERFORMER “Santana”
REM COMPOSER “”
INDEX 00 31:12:00
INDEX 01 31:13:72


Leave a Reply

Your email address will not be published. Required fields are marked *

Enter the text from the image below
 

This site uses Akismet to reduce spam. Learn how your comment data is processed.