Santana – Sacred Fire




No Cover available

Artist: Santana
Year: 1993
Genre: Rock
Notes: Discogs
Add. Notes:
Watch Songs on: YouTube
Cover incl.: Yes
Encoder: FLAC
Bitrate: ~1000 kBit/s (44.1 kHz/16 Bit/s)
Log & Cue incl.: Yes/Yes
Size: 576 MB
Password: “slam” (without ” “)


All Downloads/Hosters are compatible

Download 1
KatFile.com
Turbobit.net
Rapidgator.net
FileFactory.com
Download 2
KatFile.com
Turbobit.net
Rapidgator.net
FileFactory.com

Tracklist:

1 Angels All Around Us (Introduction) 1:57
2 Vive La Vida (Life Is For Living) 4:18
3 Esperando 5:58
4 No One To Depend On 4:38
5 Black Magic Woman / Gypsy Queen 8:53
6 Oye Como Va 5:07
7 Samba Pa Ti 6:49
8 Guajira 6:13
9 Make Somebody Happy 7:14
10 Toussaint L'Overture 6:52
11 Soul Sacrifice / Don't Try This At Home 7:26
12 Europa (Earth's Cry Heaven's Smile) 6:11
13 Jin-Go-Lo-Ba 5:43

EAC-Log, CUE-Sheed & NFO:

Click to open spoiler
Exact Audio Copy V1.0 beta 3 from 29. August 2011

Отчёт EAC об извлечении, выполненном 28. марта 2013, 14:04

Santana / Sacred Fire

Дисковод: SONY CD-RW CRX230ED Adapter: 0 ID: 1

Режим чтения : Достоверность
Использование точного потока : Да
Отключение кэша аудио : Да
Использование указателей C2 : Нет

Коррекция смещения при чтении : 6
Способность читать области Lead-in и Lead-out : Нет
Заполнение пропущенных сэмплов тишиной : Да
Удаление блоков с тишиной в начале и конце : Нет
При вычислениях CRC использовались нулевые сэмплы : Да
Интерфейс : Установленный внешний ASPI-интерфейс

Выходной формат : Внутренние WAV-операции
Формат сэмплов : 44.100 Гц; 16 бит; стерео

TOC извлечённого CD

Трек | Старт | Длительность | Начальный сектор | Конечный сектор
———————————————————————
1 | 0:00.32 | 1:58.60 | 32 | 8941
2 | 1:59.17 | 4:18.03 | 8942 | 28294
3 | 6:17.20 | 5:57.00 | 28295 | 55069
4 | 12:14.20 | 4:31.45 | 55070 | 75439
5 | 16:45.65 | 8:49.70 | 75440 | 115184
6 | 25:35.60 | 5:09.22 | 115185 | 138381
7 | 30:45.07 | 6:42.40 | 138382 | 168571
8 | 37:27.47 | 6:13.43 | 168572 | 196589
9 | 43:41.15 | 7:10.40 | 196590 | 228879
10 | 50:51.55 | 6:52.00 | 228880 | 259779
11 | 57:43.55 | 7:26.30 | 259780 | 293259
12 | 65:10.10 | 6:12.02 | 293260 | 321161
13 | 71:22.12 | 5:38.28 | 321162 | 346539

Характеристики диапазона извлечения и сообщения об ошибках

Выбранный диапазон

Имя файла E:\MusicCD\Torrent\Santana\Santana – Sacred Fire\Santana – Sacred Fire.wav

Пиковый уровень 97.2 %
Скорость извлечения 9.3 X
Качество диапазона 100.0 %
CRC теста 476516CF
CRC копии 476516CF
Копирование… OK

Ошибок не произошло

AccurateRip: сводка

Трек 1 точность не определена (достоверность 8) [5896CE6C], AccurateRip вернул [B0679B04] (AR v2)
Трек 2 точность не определена (достоверность 8) [BBA3D5D7], AccurateRip вернул [740E3C67] (AR v2)
Трек 3 точность не определена (достоверность 8) [9F573D2B], AccurateRip вернул [350858F7] (AR v2)
Трек 4 точность не определена (достоверность 8) [F8D32DD8], AccurateRip вернул [73D67AD6] (AR v2)
Трек 5 точность не определена (достоверность 8) [16419700], AccurateRip вернул [60F6D528] (AR v2)
Трек 6 точность не определена (достоверность 8) [09441916], AccurateRip вернул [B96718A2] (AR v2)
Трек 7 точность не определена (достоверность 8) [497D0A37], AccurateRip вернул [AA03017B] (AR v2)
Трек 8 точность не определена (достоверность 8) [481EA968], AccurateRip вернул [5B06AAE3] (AR v2)
Трек 9 точность не определена (достоверность 8) [6736B596], AccurateRip вернул [CB2A1D9C] (AR v2)
Трек 10 точность не определена (достоверность 8) [16A1B3D8], AccurateRip вернул [62CABB06] (AR v2)
Трек 11 точность не определена (достоверность 8) [9D7BF0AD], AccurateRip вернул [40D1E680] (AR v2)
Трек 12 точность не определена (достоверность 8) [FFE4C93B], AccurateRip вернул [B84B1108] (AR v2)
Трек 13 точность не определена (достоверность 7) [29C92552], AccurateRip вернул [E3F3D77A] (AR v2)

Ни один трек не прошёл проверки на точность
В вашей базе может быть иной вариант штамповки диска

Конец отчёта

==== Контрольная сумма отчёта 788896001C510D38AFBF701EDA1EA0C7AC597CEE0D34E771C982DBB03EE8B32F ====

REM GENRE Rock
REM DATE 1993
REM DISCID B1120C0D
REM COMMENT “ExactAudioCopy v1.0b3”
PERFORMER “Santana”
TITLE “Sacred Fire”
FILE “Santana – Sacred Fire.flac” WAVE
TRACK 01 AUDIO
TITLE “Angels All Around Us”
PERFORMER “Santana”
INDEX 00 00:00:00
INDEX 01 00:00:32
TRACK 02 AUDIO
TITLE “Vive La Vida”
PERFORMER “Santana”
INDEX 01 01:59:17
TRACK 03 AUDIO
TITLE “Esperando”
PERFORMER “Santana”
INDEX 01 06:17:20
TRACK 04 AUDIO
TITLE “No One To Depend On”
PERFORMER “Santana”
INDEX 01 12:14:20
TRACK 05 AUDIO
TITLE “Black Magic Woman – Gypsy Queen”
PERFORMER “Santana”
INDEX 01 16:45:65
TRACK 06 AUDIO
TITLE “Oye Como Va”
PERFORMER “Santana”
INDEX 01 25:35:60
TRACK 07 AUDIO
TITLE “Samba Pa Ti”
PERFORMER “Santana”
INDEX 01 30:45:07
TRACK 08 AUDIO
TITLE “Guajira”
PERFORMER “Santana”
INDEX 01 37:27:47
TRACK 09 AUDIO
TITLE “Make Somebody Happy”
PERFORMER “Santana”
INDEX 01 43:41:15
TRACK 10 AUDIO
TITLE “Toussaint L’Overture”
PERFORMER “Santana”
INDEX 01 50:51:55
TRACK 11 AUDIO
TITLE “Soul Sacrifice – Don’t Try This At Home”
PERFORMER “Santana”
INDEX 01 57:43:55
TRACK 12 AUDIO
TITLE “Europa”
PERFORMER “Santana”
INDEX 01 65:10:10
TRACK 13 AUDIO
TITLE “Ji-Go-Lo-Ba”
PERFORMER “Santana”
INDEX 01 71:22:12


Leave a Reply

Your email address will not be published. Required fields are marked *

This site uses Akismet to reduce spam. Learn how your comment data is processed.