Santana – Moonflower




No Cover available

Artist: Santana
Year: 1977/1991
Genre: Rock
Notes: Discogs
Add. Notes:
Watch Songs on: YouTube
Cover incl.: Yes
Encoder: FLAC
Bitrate: ~1000 kBit/s (44.1 kHz/16 Bit/s)
Log & Cue incl.: Yes/Yes
Size: 698,5 MB
Password: “slam” (without ” “)


All Downloads/Hosters are compatible

Download 1
KatFile.com
Turbobit.net
FileFactory.com
Rapidgator.net
Download 2
KatFile.com
Turbobit.net
FileFactory.com
Rapidgator.net

Tracklist:

CD 1
1 Dawn / Go Within 
2 Carnaval 
3 Let The Children Play 
4 Jugando 
5 I'll Be Waiting 
6 Zulu 
7 Bahia 
8 Black Magic Woman / Gypsy Queen 
9 Dance Sister Dance (Baila Mi Hermana) 
10 Europa (Earth's Cry Heaven's Smile) 

CD 2
1 She's Not There 
2 Flor D'Luna (Moonflower) 
3 Soul Sacrifice / Head, Hands & Feet 
4 El Morocco 
5 Transcendance 
6 Savor / Toussaint L'Overture

EAC-Log, CUE-Sheed & NFO:

Click to open spoiler
Exact Audio Copy V1.0 beta 3 from 29. August 2011

Отчёт EAC об извлечении, выполненном 27. марта 2013, 10:16

Santana / Moonflower – CD 1

Дисковод: SONY CD-RW CRX230ED Adapter: 0 ID: 1

Режим чтения : Достоверность
Использование точного потока : Да
Отключение кэша аудио : Да
Использование указателей C2 : Нет

Коррекция смещения при чтении : 6
Способность читать области Lead-in и Lead-out : Нет
Заполнение пропущенных сэмплов тишиной : Да
Удаление блоков с тишиной в начале и конце : Нет
При вычислениях CRC использовались нулевые сэмплы : Да
Интерфейс : Установленный внешний ASPI-интерфейс

Выходной формат : Внутренние WAV-операции
Формат сэмплов : 44.100 Гц; 16 бит; стерео

TOC извлечённого CD

Трек | Старт | Длительность | Начальный сектор | Конечный сектор
———————————————————————
1 | 0:00.00 | 2:43.62 | 0 | 12286
2 | 2:43.62 | 2:17.55 | 12287 | 22616
3 | 5:01.42 | 2:37.68 | 22617 | 34459
4 | 7:39.35 | 2:09.62 | 34460 | 44196
5 | 9:49.22 | 5:20.30 | 44197 | 68226
6 | 15:09.52 | 3:25.10 | 68227 | 83611
7 | 18:34.62 | 1:37.05 | 83612 | 90891
8 | 20:11.67 | 6:32.55 | 90892 | 120346
9 | 26:44.47 | 7:45.15 | 120347 | 155236
10 | 34:29.62 | 6:07.48 | 155237 | 182809

Характеристики диапазона извлечения и сообщения об ошибках

Выбранный диапазон

Имя файла E:\MusicCD\Torrent\Santana\Santana – Moonflower\Santana – Moonflower – CD 1.wav

Пиковый уровень 100.0 %
Скорость извлечения 5.5 X
Качество диапазона 100.0 %
CRC теста 0B4AFDC9
CRC копии 0B4AFDC9
Копирование… OK

Ошибок не произошло

AccurateRip: сводка

Трек 1 : извлечено точно (доверие 12) [AFF9493C] (AR v2)
Трек 2 : извлечено точно (доверие 13) [5E51D515] (AR v2)
Трек 3 : извлечено точно (доверие 12) [DEA9B2B1] (AR v2)
Трек 4 : извлечено точно (доверие 12) [90598E99] (AR v2)
Трек 5 : извлечено точно (доверие 12) [659D25A1] (AR v2)
Трек 6 : извлечено точно (доверие 12) [0DB0CAD3] (AR v2)
Трек 7 : извлечено точно (доверие 12) [580D3927] (AR v2)
Трек 8 : извлечено точно (доверие 11) [2243DB8F] (AR v2)
Трек 9 : извлечено точно (доверие 12) [7560DFA6] (AR v2)
Трек 10 : извлечено точно (доверие 12) [28066EAB] (AR v2)

Все треки извлечены точно

Конец отчёта

==== Контрольная сумма отчёта 15C214041650099D03C7B40183E56D48FA1152B2ADF436996388E19C43A1AB3A ====

Exact Audio Copy V1.0 beta 3 from 29. August 2011

Отчёт EAC об извлечении, выполненном 27. марта 2013, 10:44

Santana / Moonflower – CD 2

Дисковод: SONY CD-RW CRX230ED Adapter: 0 ID: 1

Режим чтения : Достоверность
Использование точного потока : Да
Отключение кэша аудио : Да
Использование указателей C2 : Нет

Коррекция смещения при чтении : 6
Способность читать области Lead-in и Lead-out : Нет
Заполнение пропущенных сэмплов тишиной : Да
Удаление блоков с тишиной в начале и конце : Нет
При вычислениях CRC использовались нулевые сэмплы : Да
Интерфейс : Установленный внешний ASPI-интерфейс

Выходной формат : Внутренние WAV-операции
Формат сэмплов : 44.100 Гц; 16 бит; стерео

TOC извлечённого CD

Трек | Старт | Длительность | Начальный сектор | Конечный сектор
———————————————————————
1 | 0:00.00 | 4:08.52 | 0 | 18651
2 | 4:08.52 | 5:01.48 | 18652 | 41274
3 | 9:10.25 | 14:01.35 | 41275 | 104384
4 | 23:11.60 | 5:05.17 | 104385 | 127276
5 | 28:17.02 | 5:13.60 | 127277 | 150811
6 | 33:30.62 | 12:56.60 | 150812 | 209071

Характеристики диапазона извлечения и сообщения об ошибках

Выбранный диапазон

Имя файла E:\MusicCD\Torrent\Santana\Santana – Moonflower\Santana – Moonflower – CD 2.wav

Пиковый уровень 99.9 %
Скорость извлечения 5.6 X
Качество диапазона 100.0 %
CRC теста 3B9F1CED
CRC копии 3B9F1CED
Копирование… OK

Ошибок не произошло

AccurateRip: сводка

Трек 1 : извлечено точно (доверие 10) [9B12365B] (AR v2)
Трек 2 : извлечено точно (доверие 10) [AB04B82B] (AR v2)
Трек 3 : извлечено точно (доверие 10) [00A15C51] (AR v2)
Трек 4 : извлечено точно (доверие 10) [3614528F] (AR v2)
Трек 5 : извлечено точно (доверие 10) [4DB5DB3F] (AR v2)
Трек 6 : извлечено точно (доверие 10) [7218BCE0] (AR v2)

Все треки извлечены точно

Конец отчёта

==== Контрольная сумма отчёта 9CBAF8668E1FEABBBF6E23977A9E5E9A90110752DE962A3A1A2DF6BC598D62D1 ====

REM GENRE Pop\Rock*
REM DATE 1977
REM DISCID 6009850A
REM COMMENT “ExactAudioCopy v1.0b3”
PERFORMER “Santana”
TITLE “Moonflower – CD 1”
FILE “Santana – Moonflower – CD 1.flac” WAVE
TRACK 01 AUDIO
TITLE “Dawn – Go Within”
PERFORMER “Santana”
INDEX 01 00:00:00
TRACK 02 AUDIO
TITLE “Carnaval”
PERFORMER “Santana”
INDEX 01 02:43:62
TRACK 03 AUDIO
TITLE “Let The Children Play”
PERFORMER “Santana”
INDEX 01 05:01:42
TRACK 04 AUDIO
TITLE “Jugando”
PERFORMER “Santana”
INDEX 01 07:39:35
TRACK 05 AUDIO
TITLE “I’ll Be Waiting”
PERFORMER “Santana”
INDEX 01 09:49:22
TRACK 06 AUDIO
TITLE “Zulu”
PERFORMER “Santana”
INDEX 00 15:06:37
INDEX 01 15:09:52
TRACK 07 AUDIO
TITLE “Bahia”
PERFORMER “Santana”
INDEX 00 18:31:62
INDEX 01 18:34:62
TRACK 08 AUDIO
TITLE “Black Magic Woman – Gypsy Queen”
PERFORMER “Santana”
INDEX 01 20:11:67
TRACK 09 AUDIO
TITLE “Dance Sister Dance (Baila Mi Hermana)”
PERFORMER “Santana”
INDEX 01 26:44:47
TRACK 10 AUDIO
TITLE “Europa (Earth’s Cry Heaven’s Smile)”
PERFORMER “Santana”
INDEX 01 34:29:62

REM GENRE Pop\Rock*
REM DATE 1977
REM DISCID 430AE306
REM COMMENT “ExactAudioCopy v1.0b3”
PERFORMER “Santana”
TITLE “Moonflower – CD 2”
FILE “Santana – Moonflower – CD 2.flac” WAVE
TRACK 01 AUDIO
TITLE “She’s Not There”
PERFORMER “Santana”
INDEX 01 00:00:00
TRACK 02 AUDIO
TITLE “Flor D’Luna (Moonflower)”
PERFORMER “Santana”
INDEX 00 04:08:32
INDEX 01 04:08:52
TRACK 03 AUDIO
TITLE “Soul Sacrifice – Head, Hands & Feet (drum solo)”
PERFORMER “Santana”
INDEX 00 09:08:12
INDEX 01 09:10:25
TRACK 04 AUDIO
TITLE “El Morocco”
PERFORMER “Santana”
INDEX 00 23:10:30
INDEX 01 23:11:60
TRACK 05 AUDIO
TITLE “Transcendance”
PERFORMER “Santana”
INDEX 00 28:13:72
INDEX 01 28:17:02
TRACK 06 AUDIO
TITLE “Savor – Toussaint L’Overture”
PERFORMER “Santana”
INDEX 00 33:30:52
INDEX 01 33:30:62


Leave a Reply

Your email address will not be published. Required fields are marked *

Enter the text from the image below
 

This site uses Akismet to reduce spam. Learn how your comment data is processed.