Santana – Live At The Fillmore ’68




No Cover available

Artist: Santana
Year: 1997
Genre: Rock
Notes: Discogs
Add. Notes:
Watch Songs on: YouTube
Cover incl.: Yes
Encoder: FLAC
Bitrate: ~900 kBit/s (44.1 kHz/16 Bit/s)
Log & Cue incl.: Yes/Yes
Size: 767,6 MB
Password: “slam” (without ” “)


All Downloads/Hosters are compatible

Download 1
KatFile.com
Turbobit.net
Rapidgator.net
FileFactory.com
Download 2
KatFile.com
Turbobit.net
Rapidgator.net
FileFactory.com

Tracklist:

1-1  Jingo  9:38
1-2  Persuasion  7:06
1-3  Treat  9:37
1-4  Chunk A Funk  5:58
1-5  Fried Neckbones  10:10
1-6  Conquistadore Rides Again  8:40
2-1  Soul Sacrifice  14:30
2-2  As The Years Go Passing By  7:49
2-3  Freeway  30:16

EAC-Log, CUE-Sheed & NFO:

Click to open spoiler
Exact Audio Copy V1.0 beta 3 from 29. August 2011

Отчёт EAC об извлечении, выполненном 28. марта 2013, 15:30

Santana / Live At The Fillmore ’68 – CD 1

Дисковод: SONY CD-RW CRX230ED Adapter: 0 ID: 1

Режим чтения : Достоверность
Использование точного потока : Да
Отключение кэша аудио : Да
Использование указателей C2 : Нет

Коррекция смещения при чтении : 6
Способность читать области Lead-in и Lead-out : Нет
Заполнение пропущенных сэмплов тишиной : Да
Удаление блоков с тишиной в начале и конце : Нет
При вычислениях CRC использовались нулевые сэмплы : Да
Интерфейс : Установленный внешний ASPI-интерфейс

Выходной формат : Внутренние WAV-операции
Формат сэмплов : 44.100 Гц; 16 бит; стерео

TOC извлечённого CD

Трек | Старт | Длительность | Начальный сектор | Конечный сектор
———————————————————————
1 | 0:00.00 | 9:38.40 | 0 | 43389
2 | 9:38.40 | 7:05.65 | 43390 | 75329
3 | 16:44.30 | 9:37.17 | 75330 | 118621
4 | 26:21.47 | 5:58.33 | 118622 | 145504
5 | 32:20.05 | 10:09.65 | 145505 | 191244
6 | 42:29.70 | 8:39.50 | 191245 | 230219

Характеристики диапазона извлечения и сообщения об ошибках

Выбранный диапазон

Имя файла E:\MusicCD\Torrent\Santana\Santana – Live At The Fillmore ’68\Santana – Live At The Fillmore ’68 – CD 1.wav

Пиковый уровень 99.6 %
Скорость извлечения 8.4 X
Качество диапазона 100.0 %
CRC теста F8EFD3BF
CRC копии F8EFD3BF
Копирование… OK

Ошибок не произошло

AccurateRip: сводка

Трек 1 отсутствует в базе данных
Трек 2 отсутствует в базе данных
Трек 3 отсутствует в базе данных
Трек 4 отсутствует в базе данных
Трек 5 отсутствует в базе данных
Трек 6 отсутствует в базе данных

Ни одного трека нет в базе AccurateRip

Конец отчёта

==== Контрольная сумма отчёта 47910556D0F3602839FB459546C101E2411D6FBD4CB6D97BF48991ABF41EE7EC ====

Exact Audio Copy V1.0 beta 3 from 29. August 2011

Отчёт EAC об извлечении, выполненном 28. марта 2013, 15:56

Santana / Live At The Fillmore ’68 – CD 2

Дисковод: SONY CD-RW CRX230ED Adapter: 0 ID: 1

Режим чтения : Достоверность
Использование точного потока : Да
Отключение кэша аудио : Да
Использование указателей C2 : Нет

Коррекция смещения при чтении : 6
Способность читать области Lead-in и Lead-out : Нет
Заполнение пропущенных сэмплов тишиной : Да
Удаление блоков с тишиной в начале и конце : Нет
При вычислениях CRC использовались нулевые сэмплы : Да
Интерфейс : Установленный внешний ASPI-интерфейс

Выходной формат : Внутренние WAV-операции
Формат сэмплов : 44.100 Гц; 16 бит; стерео

TOC извлечённого CD

Трек | Старт | Длительность | Начальный сектор | Конечный сектор
———————————————————————
1 | 0:00.00 | 14:30.02 | 0 | 65251
2 | 14:30.02 | 7:49.05 | 65252 | 100431
3 | 22:19.07 | 30:15.13 | 100432 | 236569

Характеристики диапазона извлечения и сообщения об ошибках

Выбранный диапазон

Имя файла E:\MusicCD\Torrent\Santana\Santana – Live At The Fillmore ’68\Santana – Live At The Fillmore ’68 – CD 2.wav

Пиковый уровень 98.8 %
Скорость извлечения 8.4 X
Качество диапазона 100.0 %
CRC теста FB030043
CRC копии FB030043
Копирование… OK

Ошибок не произошло

AccurateRip: сводка

Трек 1 : извлечено точно (доверие 8) [3C75ED87] (AR v1)
Трек 2 : извлечено точно (доверие 8) [F2E9DE12] (AR v1)
Трек 3 : извлечено точно (доверие 8) [42BC2194] (AR v1)

Все треки извлечены точно

Конец отчёта

==== Контрольная сумма отчёта 08BCA322D844CC9C1A35B32330B8AD3902A2276D7E9468B48E2E45920193E448 ====

REM GENRE Rock
REM DATE 1997
REM DISCID 440BFD06
REM COMMENT “ExactAudioCopy v1.0b3”
PERFORMER “Santana”
TITLE “Live At The Fillmore ’68 – CD 1”
FILE “Santana – Live At The Fillmore ’68 – CD 1.flac” WAVE
TRACK 01 AUDIO
TITLE “Jingo”
PERFORMER “Santana”
INDEX 01 00:00:00
TRACK 02 AUDIO
TITLE “Persuasion”
PERFORMER “Santana”
INDEX 01 09:38:40
TRACK 03 AUDIO
TITLE “Treat”
PERFORMER “Santana”
INDEX 01 16:44:30
TRACK 04 AUDIO
TITLE “Chunk A Funk”
PERFORMER “Santana”
INDEX 01 26:21:47
TRACK 05 AUDIO
TITLE “Fried Neckbones”
PERFORMER “Santana”
INDEX 01 32:20:05
TRACK 06 AUDIO
TITLE “Conquistadore Rides Again”
PERFORMER “Santana”
INDEX 01 42:29:70

REM GENRE Rock
REM DATE 1997
REM DISCID 1C0C5203
REM COMMENT “ExactAudioCopy v1.0b3”
PERFORMER “Santana”
TITLE “Live At The Fillmore ’68 – CD 2”
FILE “Santana – Live At The Fillmore ’68 – CD 2.flac” WAVE
TRACK 01 AUDIO
TITLE “Soul Sacrifice”
PERFORMER “Santana”
INDEX 01 00:00:00
TRACK 02 AUDIO
TITLE “As The Years Go Passing By”
PERFORMER “Santana”
INDEX 01 14:30:02
TRACK 03 AUDIO
TITLE “Freeway”
PERFORMER “Santana”
INDEX 01 22:19:07


Leave a Reply

Your email address will not be published. Required fields are marked *

Enter the text from the image below
 

This site uses Akismet to reduce spam. Learn how your comment data is processed.