Santana – In Search Of Mona Lisa




No Cover available

Artist: Santana
Year: 2019
Genre: Rock
Notes: Discogs
Add. Notes:
Watch Songs on: YouTube
Cover incl.: Yes
Encoder: FLAC
Bitrate: ~900 kBit/s (44.1 kHz/16 Bit/s)
Log & Cue incl.: Yes/Yes
Size: 269,7 MB
Password: “slam” (without ” “)


All Downloads/Hosters are compatible

Download 1
KatFile.com
Turbobit.net
Rapidgator.net
FileFactory.com
Download 2
KatFile.com
Turbobit.net
Rapidgator.net
FileFactory.com

Tracklist:

1 Do You Remember Me 9:50
2 In Search Of Mona Lisa 5:09
3 Lovers From Another Time 4:44
4 Do You Remember Me (Edit Version) 3:28
5 In Search Of Mona Lisa (Edit Version) 3:53

EAC-Log, CUE-Sheed & NFO:

Click to open spoiler
X Lossless Decoder version 20181019 (151.1)

XLD extraction logfile from 2019-08-27 19:55:37 +0500

Santana / In Search Of Mona Lisa

Used drive : ASUS SDRW-08U9M-U (revision B101)
Media type : Pressed CD

Ripper mode : XLD Secure Ripper
Disable audio cache : OK for the drive with a cache less than 1375KiB
Make use of C2 pointers : NO
Read offset correction : 6
Max retry count : 20
Gap status : Analyzed, Appended

TOC of the extracted CD
Track | Start | Length | Start sector | End sector
———————————————————
1 | 00:00:00 | 09:50:57 | 0 | 44306
2 | 09:50:57 | 05:11:35 | 44307 | 67666
3 | 15:02:17 | 04:46:10 | 67667 | 89126
4 | 19:48:27 | 03:30:21 | 89127 | 104897
5 | 23:18:48 | 03:52:55 | 104898 | 122352

AccurateRip Summary (DiscID: 00068940-001d182c-2f065f05)
Track 01 : OK (v2, confidence 18/18)
Track 02 : OK (v2, confidence 17/17)
Track 03 : OK (v2, confidence 17/17)
Track 04 : OK (v2, confidence 17/17)
Track 05 : OK (v2, confidence 17/17)
->All tracks accurately ripped.

All Tracks
Filename : /Users/mihail/Music/CDs/Santana – In Search Of Mona Lisa.flac
Album gain : -4.81 dB
Peak : 0.999969
CRC32 hash (test run) : 5F6647EA
CRC32 hash : 5F6647EA
CRC32 hash (skip zero) : 17F40F2C
Statistics
Read error : 0
Jitter error (maybe fixed) : 0
Retry sector count : 0
Damaged sector count : 0

Track 01
Pre-gap length : 00:02:00

Track gain : -3.53 dB
Peak : 0.999969
CRC32 hash (test run) : 105BCD2D
CRC32 hash : 105BCD2D
CRC32 hash (skip zero) : F1A4C895
AccurateRip v1 signature : A48502EF
AccurateRip v2 signature : 5D5A6FD4
->Accurately ripped (v2, confidence 18/18)
Statistics
Read error : 0
Jitter error (maybe fixed) : 0
Retry sector count : 0
Damaged sector count : 0

Track 02
Pre-gap length : 00:02:00

Track gain : -6.20 dB
Peak : 0.988708
CRC32 hash (test run) : 71657D70
CRC32 hash : 71657D70
CRC32 hash (skip zero) : EDC120C9
AccurateRip v1 signature : 7E27FB2C
AccurateRip v2 signature : EE8B0233
->Accurately ripped (v2, confidence 17/17)
Statistics
Read error : 0
Jitter error (maybe fixed) : 0
Retry sector count : 0
Damaged sector count : 0

Track 03
Pre-gap length : 00:02:00

Track gain : -4.25 dB
Peak : 0.999847
CRC32 hash (test run) : 06030467
CRC32 hash : 06030467
CRC32 hash (skip zero) : 883D7994
AccurateRip v1 signature : 3A66FC9E
AccurateRip v2 signature : 0747691B
->Accurately ripped (v2, confidence 17/17)
Statistics
Read error : 0
Jitter error (maybe fixed) : 0
Retry sector count : 0
Damaged sector count : 0

Track 04
Pre-gap length : 00:02:00

Track gain : -3.61 dB
Peak : 0.999969
CRC32 hash (test run) : 814DA875
CRC32 hash : 814DA875
CRC32 hash (skip zero) : 6775B77C
AccurateRip v1 signature : 3494D48B
AccurateRip v2 signature : 33D4298B
->Accurately ripped (v2, confidence 17/17)
Statistics
Read error : 0
Jitter error (maybe fixed) : 0
Retry sector count : 0
Damaged sector count : 0

Track 05
Pre-gap length : 00:02:00

Track gain : -6.06 dB
Peak : 0.988708
CRC32 hash (test run) : 6D5510C2
CRC32 hash : 6D5510C2
CRC32 hash (skip zero) : B4FD4592
AccurateRip v1 signature : E5411F2D
AccurateRip v2 signature : EEFA28AE
->Accurately ripped (v2, confidence 17/17)
Statistics
Read error : 0
Jitter error (maybe fixed) : 0
Retry sector count : 0
Damaged sector count : 0

No errors occurred

End of status report

—–BEGIN XLD SIGNATURE—–
60mfqLG_q_Eg6TepdcfUa1xZXFUboLUZxIY2Ae1K7IWBRZiVDreOYfX2juctkQIU8tm6NF6ocSfcwXoAHPKVgwjwDrffdFgDcp3DvDi
—–END XLD SIGNATURE—–

TITLE “In Search Of Mona Lisa”
PERFORMER “Santana”
CATALOG 0888072086548
REM GENRE “Rock”
REM DATE “2019”
REM DISCID 2F065F05
REM REPLAYGAIN_ALBUM_GAIN -4.81 dB
REM REPLAYGAIN_ALBUM_PEAK 0.999969
FILE “Santana – In Search Of Mona Lisa.flac” WAVE
TRACK 01 AUDIO
TITLE “Do You Remember Me”
PERFORMER “Santana”
ISRC QMR6Y1200020
REM REPLAYGAIN_TRACK_GAIN -3.53 dB
REM REPLAYGAIN_TRACK_PEAK 0.999969
INDEX 01 00:00:00
TRACK 02 AUDIO
TITLE “In Search Of Mona Lisa”
PERFORMER “Santana”
ISRC QMR6Y1200021
REM REPLAYGAIN_TRACK_GAIN -6.20 dB
REM REPLAYGAIN_TRACK_PEAK 0.988708
INDEX 00 09:48:57
INDEX 01 09:50:57
TRACK 03 AUDIO
TITLE “Lovers From Another Time”
PERFORMER “Santana”
ISRC QMR6Y1200022
REM REPLAYGAIN_TRACK_GAIN -4.25 dB
REM REPLAYGAIN_TRACK_PEAK 0.999847
INDEX 00 15:00:17
INDEX 01 15:02:17
TRACK 04 AUDIO
TITLE “Do You Remember Me (Edit Version)”
PERFORMER “Santana”
ISRC QMR6Y1200023
REM REPLAYGAIN_TRACK_GAIN -3.61 dB
REM REPLAYGAIN_TRACK_PEAK 0.999969
INDEX 00 19:46:27
INDEX 01 19:48:27
TRACK 05 AUDIO
TITLE “In Search Of Mona Lisa (Edit Version)”
PERFORMER “Santana”
ISRC QMR6Y1200024
REM REPLAYGAIN_TRACK_GAIN -6.06 dB
REM REPLAYGAIN_TRACK_PEAK 0.988708
INDEX 00 23:16:48
INDEX 01 23:18:48


Leave a Reply

Your email address will not be published. Required fields are marked *

This site uses Akismet to reduce spam. Learn how your comment data is processed.