Santana – Freedom




No Cover available

Artist: Santana
Year: 1987
Genre: Rock
Notes: Discogs
Add. Notes:
Watch Songs on: YouTube
Cover incl.: Yes
Encoder: FLAC
Bitrate: ~900 kBit/s (44.1 kHz/16 Bit/s)
Log & Cue incl.: Yes/Yes
Size: 393,9 MB
Password: “slam” (without ” “)


All Downloads/Hosters are compatible

Download 1
KatFile.com
Turbobit.net
Rapidgator.net
FileFactory.com
Download 2
KatFile.com
Turbobit.net
Rapidgator.net
FileFactory.com

Tracklist:

1 Veracruz 4:26
2 She Can't Let Go 4:48
3 Once It's Gotcha 5:47
4 Love Is You 3:59
5 Songs Of Freedom 4:23
6 Deeper, Dig Deeper 4:20
7 Praise 4:38
8 Mandela 5:31
9 Before We Go 3:45
10 Victim Of Circumstance 5:23

EAC-Log, CUE-Sheed & NFO:

Click to open spoiler
Exact Audio Copy V1.0 beta 3 from 29. August 2011

Отчёт EAC об извлечении, выполненном 27. марта 2013, 21:24

Santana / Freedom

Дисковод: SONY CD-RW CRX230ED Adapter: 0 ID: 1

Режим чтения : Достоверность
Использование точного потока : Да
Отключение кэша аудио : Да
Использование указателей C2 : Нет

Коррекция смещения при чтении : 6
Способность читать области Lead-in и Lead-out : Нет
Заполнение пропущенных сэмплов тишиной : Да
Удаление блоков с тишиной в начале и конце : Нет
При вычислениях CRC использовались нулевые сэмплы : Да
Интерфейс : Установленный внешний ASPI-интерфейс

Выходной формат : Внутренние WAV-операции
Формат сэмплов : 44.100 Гц; 16 бит; стерео

TOC извлечённого CD

Трек | Старт | Длительность | Начальный сектор | Конечный сектор
———————————————————————
1 | 0:00.00 | 4:29.30 | 0 | 20204
2 | 4:29.30 | 4:49.62 | 20205 | 41941
3 | 9:19.17 | 5:46.58 | 41942 | 67949
4 | 15:06.00 | 4:02.00 | 67950 | 86099
5 | 19:08.00 | 4:24.62 | 86100 | 105961
6 | 23:32.62 | 4:21.53 | 105962 | 125589
7 | 27:54.40 | 4:41.30 | 125590 | 146694
8 | 32:35.70 | 5:33.40 | 146695 | 171709
9 | 38:09.35 | 3:46.60 | 171710 | 188719
10 | 41:56.20 | 5:23.05 | 188720 | 212949

Характеристики диапазона извлечения и сообщения об ошибках

Выбранный диапазон

Имя файла E:\MusicCD\Torrent\Santana\Santana – Freedom\Santana – Freedom.wav

Пиковый уровень 100.0 %
Скорость извлечения 5.7 X
Качество диапазона 100.0 %
CRC теста E335494A
CRC копии E335494A
Копирование… OK

Ошибок не произошло

AccurateRip: сводка

Трек 1 : извлечено точно (доверие 23) [91F59D0B] (AR v1)
Трек 2 : извлечено точно (доверие 23) [0A930104] (AR v1)
Трек 3 : извлечено точно (доверие 23) [DB90A2CF] (AR v1)
Трек 4 : извлечено точно (доверие 23) [1F781526] (AR v1)
Трек 5 : извлечено точно (доверие 23) [805764CD] (AR v1)
Трек 6 : извлечено точно (доверие 23) [83BBDC25] (AR v1)
Трек 7 : извлечено точно (доверие 22) [F767AB1C] (AR v1)
Трек 8 : извлечено точно (доверие 22) [3F37E435] (AR v1)
Трек 9 : извлечено точно (доверие 23) [BFD9EEF2] (AR v1)
Трек 10 : извлечено точно (доверие 23) [4301E4EC] (AR v1)

Все треки извлечены точно

Конец отчёта

==== Контрольная сумма отчёта 34E97728AEC1E221DD335CBCDFE48310845A98DED918B0F7D3F240BA3017F458 ====

REM GENRE Fusion
REM DATE 1987
REM DISCID 820B170A
REM COMMENT “ExactAudioCopy v1.0b3”
PERFORMER “Santana”
TITLE “Freedom”
FILE “Santana – Freedom.flac” WAVE
TRACK 01 AUDIO
TITLE “Veracruz”
PERFORMER “Santana”
INDEX 01 00:00:00
TRACK 02 AUDIO
TITLE “She Can’t Let Go”
PERFORMER “Santana”
INDEX 00 04:25:32
INDEX 01 04:29:30
TRACK 03 AUDIO
TITLE “Once It’s Gotcha”
PERFORMER “Santana”
INDEX 00 09:17:07
INDEX 01 09:19:17
TRACK 04 AUDIO
TITLE “Love Is You”
PERFORMER “Santana”
INDEX 00 15:04:45
INDEX 01 15:06:00
TRACK 05 AUDIO
TITLE “Songs Of Freedom”
PERFORMER “Santana”
INDEX 00 19:04:35
INDEX 01 19:08:00
TRACK 06 AUDIO
TITLE “Deeper, Dig Deeper”
PERFORMER “Santana”
INDEX 00 23:30:17
INDEX 01 23:32:62
TRACK 07 AUDIO
TITLE “Praise”
PERFORMER “Santana”
INDEX 00 27:52:07
INDEX 01 27:54:40
TRACK 08 AUDIO
TITLE “Mandela”
PERFORMER “Santana”
INDEX 00 32:32:20
INDEX 01 32:35:70
TRACK 09 AUDIO
TITLE “Before We Go”
PERFORMER “Santana”
INDEX 00 38:06:17
INDEX 01 38:09:35
TRACK 10 AUDIO
TITLE “Victim Of Circumstance”
PERFORMER “Santana”
INDEX 00 41:54:35
INDEX 01 41:56:20


Leave a Reply

Your email address will not be published. Required fields are marked *

This site uses Akismet to reduce spam. Learn how your comment data is processed.