Santana – Festival




No Cover available


Artist: Santana
Year: 1977/1994
Genre: Rock
Notes: Discogs
Add. Notes:
Watch Songs on: YouTube
Cover incl.: Yes
Encoder: FLAC
Bitrate: ~900 kBit/s (44.1 kHz/16 Bit/s)
Log & Cue incl.: Yes/Yes
Size: 313,1 MB
Password: “slam” (without ” “)


All Downloads/Hosters are compatible

Download 1
KatFile.com
Turbobit.net
Rapidgator.net
FileFactory.com
Download 2
KatFile.com
Turbobit.net
Rapidgator.net
FileFactory.com

Tracklist:

1 Carnaval 2:15
2 Let The Children Play 3:28
3 Jugando 2:12
4 Give Me Love 4:29
5 Verao Vermelho 5:00
6 Let The Music Set You Free 3:39
7 Revelations 4:37
8 Reach Up 5:23
9 The River 4:53
10 Try A Little Harder 5:04
11 Maria Caracoles 4:32

EAC-Log, CUE-Sheed & NFO:

Click to open spoiler
Exact Audio Copy V1.0 beta 3 from 29. August 2011

Отчёт EAC об извлечении, выполненном 26. марта 2013, 22:12

Santana / Festival

Дисковод: SONY CD-RW CRX230ED Adapter: 0 ID: 1

Режим чтения : Достоверность
Использование точного потока : Да
Отключение кэша аудио : Да
Использование указателей C2 : Нет

Коррекция смещения при чтении : 6
Способность читать области Lead-in и Lead-out : Нет
Заполнение пропущенных сэмплов тишиной : Да
Удаление блоков с тишиной в начале и конце : Нет
При вычислениях CRC использовались нулевые сэмплы : Да
Интерфейс : Установленный внешний ASPI-интерфейс

Выходной формат : Внутренние WAV-операции
Формат сэмплов : 44.100 Гц; 16 бит; стерео

TOC извлечённого CD

Трек | Старт | Длительность | Начальный сектор | Конечный сектор
———————————————————————
1 | 0:00.00 | 2:15.20 | 0 | 10144
2 | 2:15.20 | 3:28.50 | 10145 | 25794
3 | 5:43.70 | 2:12.42 | 25795 | 35736
4 | 7:56.37 | 4:30.00 | 35737 | 55986
5 | 12:26.37 | 5:01.18 | 55987 | 78579
6 | 17:27.55 | 3:41.25 | 78580 | 95179
7 | 21:09.05 | 4:36.42 | 95180 | 115921
8 | 25:45.47 | 5:25.23 | 115922 | 140319
9 | 31:10.70 | 4:53.65 | 140320 | 162359
10 | 36:04.60 | 5:03.50 | 162360 | 185134
11 | 41:08.35 | 4:32.40 | 185135 | 205574

Характеристики диапазона извлечения и сообщения об ошибках

Выбранный диапазон

Имя файла E:\MusicCD\Torrent\Santana\Santana – Festival\Santana – Festival.wav

Пиковый уровень 99.7 %
Скорость извлечения 5.6 X
Качество диапазона 99.9 %
CRC теста 51A77F32
CRC копии 51A77F32
Копирование… OK

Ошибок не произошло

AccurateRip: сводка

Трек 1 : извлечено точно (доверие 6) [818DDD4D] (AR v1)
Трек 2 : извлечено точно (доверие 6) [68F9F129] (AR v1)
Трек 3 : извлечено точно (доверие 6) [B0B351C5] (AR v1)
Трек 4 : извлечено точно (доверие 6) [FC0F8895] (AR v1)
Трек 5 : извлечено точно (доверие 6) [03FF02CB] (AR v1)
Трек 6 : извлечено точно (доверие 6) [C2CE86CF] (AR v1)
Трек 7 : извлечено точно (доверие 6) [F6207295] (AR v1)
Трек 8 : извлечено точно (доверие 6) [1AE93E54] (AR v1)
Трек 9 : извлечено точно (доверие 6) [87FFCB58] (AR v1)
Трек 10 : извлечено точно (доверие 6) [E7EE034B] (AR v1)
Трек 11 : извлечено точно (доверие 6) [7DB3E02E] (AR v1)

Все треки извлечены точно

Конец отчёта

==== Контрольная сумма отчёта 8A1A220B819B2090EEEC72C54BF656D496A9F1CFFD372212BBE0AB534ECF29D0 ====

REM DATE 1977
REM DISCID 970AB50B
REM COMMENT “ExactAudioCopy v1.0b3”
PERFORMER “Santana”
TITLE “Festival”
FILE “Santana – Festival.flac” WAVE
TRACK 01 AUDIO
TITLE “Carnaval”
PERFORMER “Santana”
INDEX 01 00:00:00
TRACK 02 AUDIO
TITLE “Let The Children Play”
PERFORMER “Santana”
INDEX 00 02:15:17
INDEX 01 02:15:20
TRACK 03 AUDIO
TITLE “Jugando”
PERFORMER “Santana”
INDEX 00 05:43:67
INDEX 01 05:43:70
TRACK 04 AUDIO
TITLE “Give Me Love”
PERFORMER “Santana”
INDEX 00 07:56:12
INDEX 01 07:56:37
TRACK 05 AUDIO
TITLE “Verao Vermelho”
PERFORMER “Santana”
INDEX 00 12:26:12
INDEX 01 12:26:37
TRACK 06 AUDIO
TITLE “Let The Music Set You Free”
PERFORMER “Santana”
INDEX 00 17:26:57
INDEX 01 17:27:55
TRACK 07 AUDIO
TITLE “Revelations”
PERFORMER “Santana”
INDEX 00 21:07:20
INDEX 01 21:09:05
TRACK 08 AUDIO
TITLE “Reach Up”
PERFORMER “Santana”
INDEX 00 25:45:45
INDEX 01 25:45:47
TRACK 09 AUDIO
TITLE “The River”
PERFORMER “Santana”
INDEX 00 31:08:42
INDEX 01 31:10:70
TRACK 10 AUDIO
TITLE “Try A Little Harder”
PERFORMER “Santana”
INDEX 00 36:04:00
INDEX 01 36:04:60
TRACK 11 AUDIO
TITLE “Maria Caracoles”
PERFORMER “Santana”
INDEX 00 41:08:25
INDEX 01 41:08:35


0

Publication author

offline 7 days

Chaos

3
Comments: 4Publics: 3565Registration: 02-02-2019
Spread the Download

Leave a Reply

Your email address will not be published. Required fields are marked *

Enter the text from the image below
 

This site uses Akismet to reduce spam. Learn how your comment data is processed.