Santana – Corazón




No Cover available

Artist: Santana
Year: 2014
Genre: Rock
Notes: Discogs
Add. Notes:
Watch Songs on: YouTube
Cover incl.: Yes
Encoder: FLAC
Bitrate: ~1000 kBit/s (44.1 kHz/16 Bit/s)
Log & Cue incl.: Yes/Yes
Size: 407,7 MB
Password: “slam” (without ” “)


All Downloads/Hosters are compatible

Download 1
KatFile.com
Turbobit.net
Rapidgator.net
FileFactory.com
Download 2
KatFile.com
Turbobit.net
Rapidgator.net
FileFactory.com

Tracklist:

1 Saideira (Spanish Version) 3:55
2 La Flaca 4:11
3 Mal Bicho 3:38
4 Oye 2014 3:23
5 Iron Lion Zion 4:30
6 Una Noche En Nápoles 4:30
7 Besos De Lejos 4:17
8 Margarita 4:01
9 Indy 3:26
10 Feel It Coming Back 4:09
11 Yo Soy La Luz 4:06
12 I See Your Face 1:19

EAC-Log, CUE-Sheed & NFO:

Click to open spoiler
Exact Audio Copy V1.1 from 23. June 2015

Отчёт EAC об извлечении, выполненном 8. мая 2016, 13:32

Santana / Corazon

Дисковод: SONY CD-RW CRX230ED Adapter: 1 ID: 0

Режим чтения : Достоверность
Использование точного потока : Да
Отключение кэша аудио : Да
Использование указателей C2 : Нет

Коррекция смещения при чтении : 6
Способность читать области Lead-in и Lead-out : Нет
Заполнение пропущенных сэмплов тишиной : Да
Удаление блоков с тишиной в начале и конце : Нет
При вычислениях CRC использовались нулевые сэмплы : Да
Интерфейс : Встроенный Win32-интерфейс для Win NT/2000

Выходной формат : Внутренние WAV-операции
Формат сэмплов : 44.100 Гц; 16 бит; стерео

TOC извлечённого CD

Трек | Старт | Длительность | Начальный сектор | Конечный сектор
———————————————————————
1 | 0:00.00 | 3:55.31 | 0 | 17655
2 | 3:55.31 | 4:10.59 | 17656 | 36464
3 | 8:06.15 | 3:37.50 | 36465 | 52789
4 | 11:43.65 | 3:22.52 | 52790 | 67991
5 | 15:06.42 | 4:30.29 | 67992 | 88270
6 | 19:36.71 | 4:29.57 | 88271 | 108502
7 | 24:06.53 | 4:16.53 | 108503 | 127755
8 | 28:23.31 | 4:01.03 | 127756 | 145833
9 | 32:24.34 | 3:26.28 | 145834 | 161311
10 | 35:50.62 | 4:09.22 | 161312 | 180008
11 | 40:00.09 | 4:06.11 | 180009 | 198469
12 | 44:06.20 | 1:18.46 | 198470 | 204365

Характеристики диапазона извлечения и сообщения об ошибках

Выбранный диапазон

Имя файла F:\MusicCD\Torrent\Santana – Corazon\Santana – Corazon.wav

Пиковый уровень 99.9 %
Скорость извлечения 7.8 X
Качество диапазона 100.0 %
CRC теста 5304C5A4
CRC копии 5304C5A4
Копирование… OK

Ошибок не произошло

AccurateRip: сводка

Трек 1 : извлечено точно (доверие 110) [E01286F8] (AR v2)
Трек 2 : извлечено точно (доверие 111) [61485DA9] (AR v2)
Трек 3 : извлечено точно (доверие 110) [CFA0BE5B] (AR v2)
Трек 4 : извлечено точно (доверие 110) [8BF15585] (AR v2)
Трек 5 : извлечено точно (доверие 110) [B14082D8] (AR v2)
Трек 6 : извлечено точно (доверие 111) [9E7D9E1D] (AR v2)
Трек 7 : извлечено точно (доверие 110) [D9E46E5F] (AR v2)
Трек 8 : извлечено точно (доверие 111) [9E453569] (AR v2)
Трек 9 : извлечено точно (доверие 112) [ACDB587F] (AR v2)
Трек 10 : извлечено точно (доверие 110) [5D3B290A] (AR v2)
Трек 11 : извлечено точно (доверие 110) [25DE857A] (AR v2)
Трек 12 : извлечено точно (доверие 110) [15224092] (AR v2)

Все треки извлечены точно

Конец отчёта

—- CUETools DB Plugin V2.1.6

[CTDB TOCID: FW7YaCKddkSrVnAmGt_WukEEVsI-] found
Submit result: FW7YaCKddkSrVnAmGt_WukEEVsI- has been confirmed
Track | CTDB Status
1 | (236/238) Accurately ripped
2 | (236/238) Accurately ripped
3 | (235/238) Accurately ripped
4 | (236/238) Accurately ripped
5 | (236/238) Accurately ripped
6 | (236/238) Accurately ripped
7 | (234/238) Accurately ripped
8 | (236/238) Accurately ripped
9 | (236/238) Accurately ripped
10 | (235/238) Accurately ripped
11 | (235/238) Accurately ripped
12 | (235/238) Accurately ripped

==== Контрольная сумма отчёта 9298CEFB00785E8230FB1F5589AB4EB5A4BBB59E248F283349D29DDB8B2A9A78 ====

REM GENRE Rock
REM DATE 2014
REM DISCID A80AA40C
REM COMMENT “ExactAudioCopy v1.1”
PERFORMER “Santana”
TITLE “Corazon”
FILE “Santana – Corazon.flac” WAVE
TRACK 01 AUDIO
TITLE “Saideira (Spanish Version)”
PERFORMER “Santana”
INDEX 01 00:00:00
TRACK 02 AUDIO
TITLE “La Flaca”
PERFORMER “Santana”
INDEX 01 03:55:31
TRACK 03 AUDIO
TITLE “Mal Bicho”
PERFORMER “Santana”
INDEX 01 08:06:15
TRACK 04 AUDIO
TITLE “Oye 2014”
PERFORMER “Santana”
INDEX 01 11:43:65
TRACK 05 AUDIO
TITLE “Iron Lion Zion”
PERFORMER “Santana”
INDEX 01 15:06:42
TRACK 06 AUDIO
TITLE “Una Noche en Napoles”
PERFORMER “Santana”
INDEX 01 19:36:71
TRACK 07 AUDIO
TITLE “Besos de Lejos”
PERFORMER “Santana”
INDEX 01 24:06:53
TRACK 08 AUDIO
TITLE “Margarita”
PERFORMER “Santana”
INDEX 01 28:23:31
TRACK 09 AUDIO
TITLE “Indy”
PERFORMER “Santana”
INDEX 01 32:24:34
TRACK 10 AUDIO
TITLE “Feel It Coming Back”
PERFORMER “Santana”
INDEX 00 35:49:60
INDEX 01 35:50:62
TRACK 11 AUDIO
TITLE “Yo Soy La Luz”
PERFORMER “Santana”
INDEX 01 40:00:09
TRACK 12 AUDIO
TITLE “I See Your Face”
PERFORMER “Santana”
INDEX 01 44:06:20


Leave a Reply

Your email address will not be published. Required fields are marked *

Enter the text from the image below
 

This site uses Akismet to reduce spam. Learn how your comment data is processed.