Santana – Corazón Live From Mexico Live It To Believe It




No Cover available

Artist: Santana
Year: 2014
Genre: Rock
Notes: Discogs
Add. Notes:
Watch Songs on: YouTube
Cover incl.: Yes
Encoder: FLAC
Bitrate: ~1000 kBit/s (44.1 kHz/16 Bit/s)
Log & Cue incl.: Yes/Yes
Size: 693,7 MB
Password: “slam” (without ” “)


All Downloads/Hosters are compatible

Download 1
KatFile.com
Turbobit.net
Rapidgator.net
FileFactory.com
Download 2
KatFile.com
Turbobit.net
Rapidgator.net
FileFactory.com

Tracklist:

1 Our Prayer 4:42
2 Jingo 7:03
3 Iron Lion Zion 5:40
4 La Flaca 5:43
5 Amor Correspondido 4:17
6 Margarita 5:30
7 Indy 4:41
8 Maria Maria 6:49
9 Una Noche En Nápoles 5:15
10 Besos De Lejos 6:08
11 Kyoto, November 5, 1976, Part 1 2:27
12 Corazón Espinado 4:59
13 Cindy Blackman Santana Drum Solo 2:07
14 Soul Sacrifice 5:44
15 Saideira 4:46
16 Cielito Lindo/Descarga Divine Explosion 3:18

EAC-Log, CUE-Sheed & NFO:

Click to open spoiler
Exact Audio Copy V1.1 from 23. June 2015

Отчёт EAC об извлечении, выполненном 5. марта 2017, 19:18

Santana / Corazon Live From Mexico (Live It To Believe It)

Дисковод: TEAC CD-W552GB Adapter: 1 ID: 0

Режим чтения : Достоверность
Использование точного потока : Да
Отключение кэша аудио : Да
Использование указателей C2 : Нет

Коррекция смещения при чтении : 6
Способность читать области Lead-in и Lead-out : Нет
Заполнение пропущенных сэмплов тишиной : Да
Удаление блоков с тишиной в начале и конце : Нет
При вычислениях CRC использовались нулевые сэмплы : Да
Интерфейс : Встроенный Win32-интерфейс для Win NT/2000

Выходной формат : Внутренние WAV-операции
Формат сэмплов : 44.100 Гц; 16 бит; стерео

TOC извлечённого CD

Трек | Старт | Длительность | Начальный сектор | Конечный сектор
———————————————————————
1 | 0:00.00 | 4:42.07 | 0 | 21156
2 | 4:42.07 | 7:03.49 | 21157 | 52930
3 | 11:45.56 | 5:40.09 | 52931 | 78439
4 | 17:25.65 | 5:43.18 | 78440 | 104182
5 | 23:09.08 | 4:17.32 | 104183 | 123489
6 | 27:26.40 | 5:30.24 | 123490 | 148263
7 | 32:56.64 | 4:41.28 | 148264 | 169366
8 | 37:38.17 | 6:49.66 | 169367 | 200107
9 | 44:28.08 | 5:15.00 | 200108 | 223732
10 | 49:43.08 | 6:08.21 | 223733 | 251353
11 | 55:51.29 | 2:27.30 | 251354 | 262408
12 | 58:18.59 | 4:59.34 | 262409 | 284867
13 | 63:18.18 | 2:07.54 | 284868 | 294446
14 | 65:25.72 | 5:44.17 | 294447 | 320263
15 | 71:10.14 | 4:46.42 | 320264 | 341755
16 | 75:56.56 | 3:18.74 | 341756 | 356679

Характеристики диапазона извлечения и сообщения об ошибках

Выбранный диапазон

Имя файла F:\MusicCD\Torrent\Santana – Corazon Live From Mexico (Live It To Believe It)\Santana – Corazon Live From Mexico (Live It To Believe It).wav

Пиковый уровень 100.0 %
Скорость извлечения 10.3 X
Качество диапазона 100.0 %
CRC теста 9E1AA506
CRC копии 9E1AA506
Копирование… OK

Ошибок не произошло

AccurateRip: сводка

Трек 1 : извлечено точно (доверие 25) [95F7B679] (AR v2)
Трек 2 : извлечено точно (доверие 25) [A7C44C50] (AR v2)
Трек 3 : извлечено точно (доверие 25) [FEC85770] (AR v2)
Трек 4 : извлечено точно (доверие 25) [B674CC23] (AR v2)
Трек 5 : извлечено точно (доверие 25) [634366F0] (AR v2)
Трек 6 : извлечено точно (доверие 25) [5471AB82] (AR v2)
Трек 7 : извлечено точно (доверие 24) [B2960189] (AR v2)
Трек 8 : извлечено точно (доверие 24) [9EDA69E7] (AR v2)
Трек 9 : извлечено точно (доверие 24) [D7994E2F] (AR v2)
Трек 10 : извлечено точно (доверие 25) [BCF15001] (AR v2)
Трек 11 : извлечено точно (доверие 25) [3BB4D80B] (AR v2)
Трек 12 : извлечено точно (доверие 25) [A6F5CF0D] (AR v2)
Трек 13 : извлечено точно (доверие 24) [1B23281F] (AR v2)
Трек 14 : извлечено точно (доверие 25) [1F4F326B] (AR v2)
Трек 15 : извлечено точно (доверие 25) [381589B9] (AR v2)
Трек 16 : извлечено точно (доверие 25) [13E841B7] (AR v2)

Все треки извлечены точно

Конец отчёта

—- CUETools DB Plugin V2.1.6

[CTDB TOCID: GVIn1bO3Btrv9AJXa3H4DiDSWNU-] found
Submit result: GVIn1bO3Btrv9AJXa3H4DiDSWNU- has been confirmed
Track | CTDB Status
1 | (47/47) Accurately ripped
2 | (47/47) Accurately ripped
3 | (47/47) Accurately ripped
4 | (47/47) Accurately ripped
5 | (47/47) Accurately ripped
6 | (47/47) Accurately ripped
7 | (46/47) Accurately ripped
8 | (46/47) Accurately ripped
9 | (46/47) Accurately ripped
10 | (47/47) Accurately ripped
11 | (47/47) Accurately ripped
12 | (47/47) Accurately ripped
13 | (47/47) Accurately ripped
14 | (47/47) Accurately ripped
15 | (47/47) Accurately ripped
16 | (47/47) Accurately ripped

==== Контрольная сумма отчёта C94518458E8543AE04B08CD52C86950D671905E84A617F6A563D4C2EF48CCA3F ====

REM GENRE “Latin Rock”
REM DATE 2014
REM DISCID F0129310
REM COMMENT “ExactAudioCopy v1.1”
PERFORMER “Santana”
TITLE “Corazon Live From Mexico (Live It To Believe It)”
FILE “Santana – Corazon Live From Mexico (Live It To Believe It).flac” WAVE
TRACK 01 AUDIO
TITLE “Our Prayer”
PERFORMER “Santana”
INDEX 01 00:00:00
TRACK 02 AUDIO
TITLE “Jingo”
PERFORMER “Santana”
INDEX 01 04:42:07
TRACK 03 AUDIO
TITLE “Iron Lion Zion”
PERFORMER “Santana”
INDEX 01 11:45:56
TRACK 04 AUDIO
TITLE “La Flaca”
PERFORMER “Santana”
INDEX 01 17:25:65
TRACK 05 AUDIO
TITLE “Amor Correspondido”
PERFORMER “Santana”
INDEX 01 23:09:08
TRACK 06 AUDIO
TITLE “Margarita”
PERFORMER “Santana”
INDEX 01 27:26:40
TRACK 07 AUDIO
TITLE “Indy”
PERFORMER “Santana”
INDEX 01 32:56:64
TRACK 08 AUDIO
TITLE “Maria Maria”
PERFORMER “Santana”
INDEX 01 37:38:17
TRACK 09 AUDIO
TITLE “Una Noche En Napoles”
PERFORMER “Santana”
INDEX 01 44:28:08
TRACK 10 AUDIO
TITLE “Besos De Lejos”
PERFORMER “Santana”
INDEX 01 49:43:08
TRACK 11 AUDIO
TITLE “Kyoto, November 5, 1976, Part 1”
PERFORMER “Santana”
INDEX 01 55:51:29
TRACK 12 AUDIO
TITLE “Corazon Espinado”
PERFORMER “Santana”
INDEX 01 58:18:59
TRACK 13 AUDIO
TITLE “Cindy Blackman Santana Drum Solo”
PERFORMER “Santana”
INDEX 01 63:18:18
TRACK 14 AUDIO
TITLE “Soul Sacrifice”
PERFORMER “Santana”
INDEX 01 65:25:72
TRACK 15 AUDIO
TITLE “Saideira”
PERFORMER “Santana”
INDEX 01 71:10:14
TRACK 16 AUDIO
TITLE “Cielito Lindo – Descarga Divine Explosion”
PERFORMER “Santana”
INDEX 01 75:56:56


0

Publication author

offline 14 hours

Chaos

3
Comments: 4Publics: 3418Registration: 02-02-2019
Spread the Download

Leave a Reply

Your email address will not be published. Required fields are marked *

Enter the text from the image below
 

This site uses Akismet to reduce spam. Learn how your comment data is processed.