Santana – Caravanserai (Reissue)




No Cover available

Artist: Santana
Year: 1972/2003
Genre: Rock
Notes: Discogs
Add. Notes: Reissue
Watch Songs on: YouTube
Cover incl.: Yes
Encoder: FLAC
Bitrate: ~900 kBit/s (44.1 kHz/16 Bit/s)
Log & Cue incl.: Yes/Yes
Size: 375,8 MB
Password: “slam” (without ” “)


All Downloads/Hosters are compatible

Download 1
KatFile.com
Turbobit.net
FileFactory.com
Rapidgator.net
Download 2
KatFile.com
Turbobit.net
FileFactory.com
Rapidgator.net

Tracklist:

1 Eternal Caravan Of Reincarnation 4:28
2 Waves Within 3:53
3 Look Up (To See What's Coming Down) 2:59
4 Just In Time To See The Sun 2:19
5 Song Of The Wind 6:02
6 All The Love Of The Universe 7:36
7 Future Primitive 4:12
8 Stone Flower 6:14
9 La Fuente Del Ritmo 4:33
10 Every Step Of The Way 9:04

EAC-Log, CUE-Sheed & NFO:

Click to open spoiler
Exact Audio Copy V1.0 beta 3 from 29. August 2011

Отчёт EAC об извлечении, выполненном 26. марта 2013, 12:45

Santana / Caravanserai

Дисковод: SONY CD-RW CRX230ED Adapter: 0 ID: 1

Режим чтения : Достоверность
Использование точного потока : Да
Отключение кэша аудио : Да
Использование указателей C2 : Нет

Коррекция смещения при чтении : 6
Способность читать области Lead-in и Lead-out : Нет
Заполнение пропущенных сэмплов тишиной : Да
Удаление блоков с тишиной в начале и конце : Нет
При вычислениях CRC использовались нулевые сэмплы : Да
Интерфейс : Установленный внешний ASPI-интерфейс

Выходной формат : Внутренние WAV-операции
Формат сэмплов : 44.100 Гц; 16 бит; стерео

TOC извлечённого CD

Трек | Старт | Длительность | Начальный сектор | Конечный сектор
———————————————————————
1 | 0:00.00 | 4:30.67 | 0 | 20316
2 | 4:30.67 | 3:53.30 | 20317 | 37821
3 | 8:24.22 | 2:56.43 | 37822 | 51064
4 | 11:20.65 | 2:13.02 | 51065 | 61041
5 | 13:33.67 | 6:08.25 | 61042 | 88666
6 | 19:42.17 | 7:38.43 | 88667 | 123059
7 | 27:20.60 | 4:13.30 | 123060 | 142064
8 | 31:34.15 | 6:12.40 | 142065 | 170004
9 | 37:46.55 | 4:33.52 | 170005 | 190531
10 | 42:20.32 | 9:00.70 | 190532 | 231101

Характеристики диапазона извлечения и сообщения об ошибках

Выбранный диапазон

Имя файла E:\MusicCD\Torrent\Santana\Santana – Caravanserai\Santana – Caravanserai.wav

Пиковый уровень 96.5 %
Скорость извлечения 5.9 X
Качество диапазона 100.0 %
CRC теста 1C943158
CRC копии 1C943158
Копирование… OK

Ошибок не произошло

AccurateRip: сводка

Трек 1 : извлечено точно (доверие 7) [F890E374] (AR v2)
Трек 2 : извлечено точно (доверие 7) [1AD0720B] (AR v2)
Трек 3 : извлечено точно (доверие 7) [CA3EA7AF] (AR v2)
Трек 4 : извлечено точно (доверие 7) [43E2388D] (AR v2)
Трек 5 : извлечено точно (доверие 7) [32B6F94D] (AR v2)
Трек 6 : извлечено точно (доверие 7) [1FBBF0D8] (AR v2)
Трек 7 : извлечено точно (доверие 7) [4D101EC5] (AR v2)
Трек 8 : извлечено точно (доверие 7) [78378E8F] (AR v2)
Трек 9 : извлечено точно (доверие 7) [354A4F2D] (AR v2)
Трек 10 : извлечено точно (доверие 7) [3BD9061D] (AR v2)

Все треки извлечены точно

Конец отчёта

==== Контрольная сумма отчёта B19AB408B06B27541084668321D1167650E9EC00CFD88436C17F99E069D78D97 ====

REM GENRE Latin-Rock
REM DATE 1972
REM DISCID 880C090A
REM COMMENT “ExactAudioCopy v1.0b3”
PERFORMER “Santana”
TITLE “Caravanserai”
FILE “Santana – Caravanserai.flac” WAVE
TRACK 01 AUDIO
TITLE “Eternal Caravan Of Reincarnation”
PERFORMER “Santana”
INDEX 01 00:00:00
TRACK 02 AUDIO
TITLE “Waves Within”
PERFORMER “Santana”
INDEX 01 04:30:67
TRACK 03 AUDIO
TITLE “Look Up (To See What’s Coming Down)”
PERFORMER “Santana”
INDEX 01 08:24:22
TRACK 04 AUDIO
TITLE “Just In Time To See The Sun”
PERFORMER “Santana”
INDEX 01 11:20:65
TRACK 05 AUDIO
TITLE “Song Of The Wind”
PERFORMER “Santana”
INDEX 01 13:33:67
TRACK 06 AUDIO
TITLE “All The Love Of The Universe”
PERFORMER “Santana”
INDEX 01 19:42:17
TRACK 07 AUDIO
TITLE “Future Primitive”
PERFORMER “Santana”
INDEX 00 27:17:50
INDEX 01 27:20:60
TRACK 08 AUDIO
TITLE “Stone Flower”
PERFORMER “Santana”
INDEX 01 31:34:15
TRACK 09 AUDIO
TITLE “La Fuente Del Ritmo”
PERFORMER “Santana”
INDEX 01 37:46:55
TRACK 10 AUDIO
TITLE “Every Step Of The Way”
PERFORMER “Santana”
INDEX 00 42:18:00
INDEX 01 42:20:32


Leave a Reply

Your email address will not be published. Required fields are marked *

Enter the text from the image below
 

This site uses Akismet to reduce spam. Learn how your comment data is processed.