Santana – Beyond Appearances




No Cover available

Artist: Santana
Year: 1985
Genre: Rock
Notes: Discogs
Add. Notes:
Watch Songs on: YouTube
Cover incl.: Yes
Encoder: FLAC
Bitrate: ~1000 kBit/s (44.1 kHz/16 Bit/s)
Log & Cue incl.: Yes/Yes
Size: 410,3 MB
Password: “slam” (without ” “)


All Downloads/Hosters are compatible

Download 1
KatFile.com
Turbobit.net
Rapidgator.net
FileFactory.com
Download 2
KatFile.com
Turbobit.net
Rapidgator.net
FileFactory.com

Tracklist:

1 Breaking Out 4:30
2 Written In Sand 3:49
3 Brotherhood 
4 Spirit 
5 Right Now 
6 Who Loves You 
7 I'm The One Who Loves You 
8 Say It Again 
9 Two Points Of View 
10 How Long 
11 Touchdown Raiders

EAC-Log, CUE-Sheed & NFO:

Click to open spoiler
Exact Audio Copy V1.0 beta 3 from 29. August 2011

Отчёт EAC об извлечении, выполненном 27. марта 2013, 19:09

Santana / Beyond Appearances

Дисковод: SONY CD-RW CRX230ED Adapter: 0 ID: 1

Режим чтения : Достоверность
Использование точного потока : Да
Отключение кэша аудио : Да
Использование указателей C2 : Нет

Коррекция смещения при чтении : 6
Способность читать области Lead-in и Lead-out : Нет
Заполнение пропущенных сэмплов тишиной : Да
Удаление блоков с тишиной в начале и конце : Нет
При вычислениях CRC использовались нулевые сэмплы : Да
Интерфейс : Установленный внешний ASPI-интерфейс

Выходной формат : Внутренние WAV-операции
Формат сэмплов : 44.100 Гц; 16 бит; стерео

TOC извлечённого CD

Трек | Старт | Длительность | Начальный сектор | Конечный сектор
———————————————————————
1 | 0:00.00 | 4:32.05 | 0 | 20404
2 | 4:32.05 | 3:49.15 | 20405 | 37594
3 | 8:21.20 | 2:24.17 | 37595 | 48411
4 | 10:45.37 | 5:04.35 | 48412 | 71246
5 | 15:49.72 | 6:03.58 | 71247 | 98529
6 | 21:53.55 | 4:08.60 | 98530 | 117189
7 | 26:02.40 | 3:19.05 | 117190 | 132119
8 | 29:21.45 | 3:29.00 | 132120 | 147794
9 | 32:50.45 | 4:56.57 | 147795 | 170051
10 | 37:47.27 | 4:01.18 | 170052 | 188144
11 | 41:48.45 | 3:09.15 | 188145 | 202334

Характеристики диапазона извлечения и сообщения об ошибках

Выбранный диапазон

Имя файла E:\MusicCD\Torrent\Santana\Santana – Beyond Appearances\Santana – Beyond Appearances.wav

Пиковый уровень 100.0 %
Скорость извлечения 5.6 X
Качество диапазона 99.9 %
CRC теста 4E09C440
CRC копии 4E09C440
Копирование… OK

Ошибок не произошло

AccurateRip: сводка

Трек 1 точность не определена (достоверность 6) [409ECDF3], AccurateRip вернул [54BB265E] (AR v2)
Трек 2 точность не определена (достоверность 6) [0853590A], AccurateRip вернул [8DC7D594] (AR v2)
Трек 3 точность не определена (достоверность 6) [832EC134], AccurateRip вернул [101F8622] (AR v2)
Трек 4 точность не определена (достоверность 6) [2D1E51D3], AccurateRip вернул [27E951DC] (AR v2)
Трек 5 точность не определена (достоверность 6) [70F5EDA3], AccurateRip вернул [526231E2] (AR v2)
Трек 6 точность не определена (достоверность 6) [54014B5B], AccurateRip вернул [2796ED40] (AR v2)
Трек 7 точность не определена (достоверность 6) [711C83A6], AccurateRip вернул [018F80D1] (AR v2)
Трек 8 точность не определена (достоверность 6) [8262806E], AccurateRip вернул [4A070865] (AR v2)
Трек 9 точность не определена (достоверность 6) [4F4B1D34], AccurateRip вернул [4DC86F9C] (AR v2)
Трек 10 точность не определена (достоверность 6) [852A581A], AccurateRip вернул [CEB486F5] (AR v2)
Трек 11 точность не определена (достоверность 6) [E9582502], AccurateRip вернул [DC7A7CE4] (AR v2)

Ни один трек не прошёл проверки на точность
В вашей базе может быть иной вариант штамповки диска

Конец отчёта

==== Контрольная сумма отчёта CB577F16049CD8435FE4349F166CDC2EA85EDFB88A06453882E5089361B57476 ====

REM GENRE Pop/Rock*
REM DATE 1985
REM DISCID 900A890B
REM COMMENT “ExactAudioCopy v1.0b3”
PERFORMER “Santana”
TITLE “Beyond Appearances”
FILE “Santana – Beyond Appearances.flac” WAVE
TRACK 01 AUDIO
TITLE “Breaking Out”
PERFORMER “Santana”
FLAGS PRE
INDEX 01 00:00:00
TRACK 02 AUDIO
TITLE “Written In Sand”
PERFORMER “Santana”
FLAGS PRE
INDEX 01 04:32:05
TRACK 03 AUDIO
TITLE “Brotherhood”
PERFORMER “Santana”
FLAGS PRE
INDEX 01 08:21:20
TRACK 04 AUDIO
TITLE “Spirit”
PERFORMER “Santana”
FLAGS PRE
INDEX 01 10:45:37
TRACK 05 AUDIO
TITLE “Right Now”
PERFORMER “Santana”
FLAGS PRE
INDEX 01 15:49:72
TRACK 06 AUDIO
TITLE “Who Loves You”
PERFORMER “Santana”
FLAGS PRE
INDEX 00 21:51:52
INDEX 01 21:53:55
TRACK 07 AUDIO
TITLE “I’m The One Who Loves You”
PERFORMER “Santana”
FLAGS PRE
INDEX 00 26:00:25
INDEX 01 26:02:40
TRACK 08 AUDIO
TITLE “Say It Again”
PERFORMER “Santana”
FLAGS PRE
INDEX 01 29:21:45
TRACK 09 AUDIO
TITLE “Two Points Of View”
PERFORMER “Santana”
FLAGS PRE
INDEX 01 32:50:45
TRACK 10 AUDIO
TITLE “How Long”
PERFORMER “Santana”
FLAGS PRE
INDEX 00 37:45:67
INDEX 01 37:47:27
TRACK 11 AUDIO
TITLE “Touchdown Raiders”
PERFORMER “Santana”
FLAGS PRE
INDEX 01 41:48:45


Leave a Reply

Your email address will not be published. Required fields are marked *

Enter the text from the image below
 

This site uses Akismet to reduce spam. Learn how your comment data is processed.