Santana – All That I Am




No Cover available

Artist: Santana
Year: 2005
Genre: Rock
Notes: Discogs
Add. Notes:
Watch Songs on: YouTube
Cover incl.: Yes
Encoder: FLAC
Bitrate: ~1100 kBit/s (44.1 kHz/16 Bit/s)
Log & Cue incl.: Yes/Yes
Size: 519,8 MB
Password: “slam” (without ” “)


All Downloads/Hosters are compatible

Download 1
KatFile.com
Turbobit.net
Rapidgator.net
FileFactory.com
Download 2
KatFile.com
Turbobit.net
Rapidgator.net
FileFactory.com

Tracklist:

1 Hermes 4:08
2 El Fuego 4:17
3 I'm Feeling You 4:30
4 My Man 4:37
5 Just Feel Better 4:12
6 I Am Somebody 4:02
7 Con Santana 3:18
8 Twisted 5:11
9 Trinity 3:35
10 Cry Baby Cry 3:53
11 Brown Skin Girl 4:44
12 I Don't Wanna Lose Your Love 4:00
13 Da Tu Amor 6:35

EAC-Log, CUE-Sheed & NFO:

Click to open spoiler
Exact Audio Copy V1.0 beta 3 from 29. August 2011

Отчёт EAC об извлечении, выполненном 29. марта 2013, 9:49

Santana / All That I Am

Дисковод: SONY CD-RW CRX230ED Adapter: 0 ID: 1

Режим чтения : Достоверность
Использование точного потока : Да
Отключение кэша аудио : Да
Использование указателей C2 : Нет

Коррекция смещения при чтении : 6
Способность читать области Lead-in и Lead-out : Нет
Заполнение пропущенных сэмплов тишиной : Да
Удаление блоков с тишиной в начале и конце : Нет
При вычислениях CRC использовались нулевые сэмплы : Да
Интерфейс : Установленный внешний ASPI-интерфейс

Выходной формат : Внутренние WAV-операции
Формат сэмплов : 44.100 Гц; 16 бит; стерео

TOC извлечённого CD

Трек | Старт | Длительность | Начальный сектор | Конечный сектор
———————————————————————
1 | 0:00.00 | 4:08.11 | 0 | 18610
2 | 4:08.11 | 4:17.27 | 18611 | 37912
3 | 8:25.38 | 4:30.73 | 37913 | 58235
4 | 12:56.36 | 4:37.04 | 58236 | 79014
5 | 17:33.40 | 4:12.53 | 79015 | 97967
6 | 21:46.18 | 4:02.42 | 97968 | 116159
7 | 25:48.60 | 3:18.50 | 116160 | 131059
8 | 29:07.35 | 5:11.17 | 131060 | 154401
9 | 34:18.52 | 3:35.55 | 154402 | 170581
10 | 37:54.32 | 3:53.08 | 170582 | 188064
11 | 41:47.40 | 4:44.39 | 188065 | 209403
12 | 46:32.04 | 4:00.66 | 209404 | 227469
13 | 50:32.70 | 4:01.46 | 227470 | 245590

Характеристики диапазона извлечения и сообщения об ошибках

Выбранный диапазон

Имя файла E:\MusicCD\Torrent\Santana\Santana – All That I Am\Santana – All That I Am.wav

Пиковый уровень 100.0 %
Скорость извлечения 7.9 X
Качество диапазона 100.0 %
CRC теста 087565F9
CRC копии 087565F9
Копирование… OK

Ошибок не произошло

AccurateRip: сводка

Трек 1 : извлечено точно (доверие 30) [819DF242] (AR v2)
Трек 2 : извлечено точно (доверие 32) [BEBA7C67] (AR v2)
Трек 3 : извлечено точно (доверие 30) [1ED3B837] (AR v2)
Трек 4 : извлечено точно (доверие 30) [B3623572] (AR v2)
Трек 5 : извлечено точно (доверие 31) [E57901C0] (AR v2)
Трек 6 : извлечено точно (доверие 31) [2149C9BC] (AR v2)
Трек 7 : извлечено точно (доверие 31) [659C10A4] (AR v2)
Трек 8 : извлечено точно (доверие 30) [5CD8AE2E] (AR v2)
Трек 9 : извлечено точно (доверие 32) [A3FB99C0] (AR v2)
Трек 10 : извлечено точно (доверие 31) [243AA8FE] (AR v2)
Трек 11 : извлечено точно (доверие 28) [DDA3DD8F] (AR v2)
Трек 12 : извлечено точно (доверие 31) [F18E29F6] (AR v2)
Трек 13 : извлечено точно (доверие 31) [34802F82] (AR v2)

Все треки извлечены точно

Конец отчёта

==== Контрольная сумма отчёта 991EF31560D273EE85626ECE9786F67D84E7A9484384B614B0901F1AC610972D ====

REM GENRE “Latin Rock”
REM DATE 2005
REM DISCID AB0CCA0D
REM COMMENT “ExactAudioCopy v1.0b3”
PERFORMER “Santana”
TITLE “All That I Am”
FILE “Santana – All That I Am.flac” WAVE
TRACK 01 AUDIO
TITLE “Hermes”
PERFORMER “Santana”
INDEX 01 00:00:00
TRACK 02 AUDIO
TITLE “El Fuego”
PERFORMER “Santana”
INDEX 01 04:08:11
TRACK 03 AUDIO
TITLE “I’m Feeling You (featuring Michelle Branch & The Wreckers)”
PERFORMER “Santana”
INDEX 00 08:24:23
INDEX 01 08:25:38
TRACK 04 AUDIO
TITLE “My Man (featuring Mary J. Blige & Big Boi)”
PERFORMER “Santana”
INDEX 01 12:56:36
TRACK 05 AUDIO
TITLE “Just Feel Better (featuring Steven Tyler)”
PERFORMER “Santana”
INDEX 01 17:33:40
TRACK 06 AUDIO
TITLE “I Am Somebody (featuring will.i.am)”
PERFORMER “Santana”
INDEX 01 21:46:18
TRACK 07 AUDIO
TITLE “Con Santana”
PERFORMER “Santana”
INDEX 00 25:47:56
INDEX 01 25:48:60
TRACK 08 AUDIO
TITLE “Twisted (featuring Anthony Hamilton)”
PERFORMER “Santana”
INDEX 01 29:07:35
TRACK 09 AUDIO
TITLE “Trinity (featuring Kirk Hammett & Robert Randolph)”
PERFORMER “Santana”
INDEX 01 34:18:52
TRACK 10 AUDIO
TITLE “Cry Baby Cry (featuring Sean Paul & Joss Stone)”
PERFORMER “Santana”
INDEX 01 37:54:32
TRACK 11 AUDIO
TITLE “Brown Skin Girl (featuring Bo Bice)”
PERFORMER “Santana”
INDEX 00 41:46:11
INDEX 01 41:47:40
TRACK 12 AUDIO
TITLE “I Don’t Wanna Lose Your Love (featuring Los Lonely Boys)”
PERFORMER “Santana”
INDEX 00 46:30:18
INDEX 01 46:32:04
TRACK 13 AUDIO
TITLE “Da Tu Amor”
PERFORMER “Santana”
INDEX 00 50:31:57
INDEX 01 50:32:70


Leave a Reply

Your email address will not be published. Required fields are marked *

Enter the text from the image below
 

This site uses Akismet to reduce spam. Learn how your comment data is processed.