Santana – Abraxas




No Cover available

Artist: Santana
Year: 1970/1986
Genre: Rock
Notes: Discogs
Add. Notes:
Watch Songs on: YouTube
Cover incl.: Yes
Encoder: FLAC
Bitrate: ~900 kBit/s (44.1 kHz/16 Bit/s)
Log & Cue incl.: Yes/Yes
Size: 299,7 MB
Password: “slam” (without ” “)


All Downloads/Hosters are compatible

Download 1
KatFile.com
Turbobit.net
Rapidgator.net
FileFactory.com
Download 2
KatFile.com
Turbobit.net
Rapidgator.net
FileFactory.com

Tracklist:

1 Singing Winds, Crying Beasts 4:48
2 Black Magic Woman / Gypsy Queen 5:17
3 Oye Como Va 4:17
4 Incident At Neshabur 4:58
5 Se A Cabo 2:49
6 Mother's Daughter 4:25
7 Samba Pa Ti 4:46
8 Hope You're Feeling Better 4:10
9 El Nicoya 1:29

EAC-Log, CUE-Sheed & NFO:

Click to open spoiler
Exact Audio Copy V1.0 beta 3 from 29. August 2011

Отчёт EAC об извлечении, выполненном 26. марта 2013, 11:00

Santana / Abraxas

Дисковод: SONY CD-RW CRX230ED Adapter: 0 ID: 1

Режим чтения : Достоверность
Использование точного потока : Да
Отключение кэша аудио : Да
Использование указателей C2 : Нет

Коррекция смещения при чтении : 6
Способность читать области Lead-in и Lead-out : Нет
Заполнение пропущенных сэмплов тишиной : Да
Удаление блоков с тишиной в начале и конце : Нет
При вычислениях CRC использовались нулевые сэмплы : Да
Интерфейс : Установленный внешний ASPI-интерфейс

Выходной формат : Внутренние WAV-операции
Формат сэмплов : 44.100 Гц; 16 бит; стерео

TOC извлечённого CD

Трек | Старт | Длительность | Начальный сектор | Конечный сектор
———————————————————————
1 | 0:00.00 | 4:47.62 | 0 | 21586
2 | 4:47.62 | 5:19.33 | 21587 | 45544
3 | 10:07.20 | 4:16.62 | 45545 | 64806
4 | 14:24.07 | 4:56.23 | 64807 | 87029
5 | 19:20.30 | 2:49.40 | 87030 | 99744
6 | 22:09.70 | 4:21.70 | 99745 | 119389
7 | 26:31.65 | 4:37.50 | 119390 | 140214
8 | 31:09.40 | 4:10.50 | 140215 | 159014
9 | 35:20.15 | 1:24.37 | 159015 | 165351

Характеристики диапазона извлечения и сообщения об ошибках

Выбранный диапазон

Имя файла E:\MusicCD\Torrent\Santana\Santana – Abraxas\Santana – Abraxas.wav

Пиковый уровень 100.0 %
Скорость извлечения 7.0 X
Качество диапазона 100.0 %
CRC теста 70956E7E
CRC копии 70956E7E
Копирование… OK

Ошибок не произошло

AccurateRip: сводка

Трек 1 : извлечено точно (доверие 31) [9BF1C54F] (AR v2)
Трек 2 : извлечено точно (доверие 31) [90193D4B] (AR v2)
Трек 3 : извлечено точно (доверие 32) [BCAE9049] (AR v2)
Трек 4 : извлечено точно (доверие 32) [AAB8A7BD] (AR v2)
Трек 5 : извлечено точно (доверие 32) [57E4D84E] (AR v2)
Трек 6 : извлечено точно (доверие 32) [6E2E4508] (AR v2)
Трек 7 : извлечено точно (доверие 32) [95509C59] (AR v2)
Трек 8 : извлечено точно (доверие 31) [CA50DAE3] (AR v2)
Трек 9 : извлечено точно (доверие 32) [A6EB8B6D] (AR v2)

Все треки извлечены точно

Конец отчёта

==== Контрольная сумма отчёта E2A02317669130821EE1744ECC5622F75DC87096E5DAEAEE55D7D66AF5F6670F ====

REM GENRE Other
REM DATE 1970
REM DISCID 74089C09
REM COMMENT “ExactAudioCopy v1.0b3”
PERFORMER “Santana”
TITLE “Abraxas”
FILE “Santana – Abraxas.flac” WAVE
TRACK 01 AUDIO
TITLE “Singing Winds, Crying Beasts”
PERFORMER “Santana”
INDEX 01 00:00:00
TRACK 02 AUDIO
TITLE “Black Magic Woman – Gypsy Queen”
PERFORMER “Santana”
INDEX 01 04:47:62
TRACK 03 AUDIO
TITLE “Oye Como Va”
PERFORMER “Santana”
INDEX 01 10:07:20
TRACK 04 AUDIO
TITLE “Incident At Neshabur”
PERFORMER “Santana”
INDEX 00 14:23:22
INDEX 01 14:24:07
TRACK 05 AUDIO
TITLE “Se A Cabo”
PERFORMER “Santana”
INDEX 00 19:19:07
INDEX 01 19:20:30
TRACK 06 AUDIO
TITLE “Mother’s Daughter”
PERFORMER “Santana”
INDEX 01 22:09:70
TRACK 07 AUDIO
TITLE “Samba Pa Ti”
PERFORMER “Santana”
INDEX 01 26:31:65
TRACK 08 AUDIO
TITLE “Hope You’re Feeling Better”
PERFORMER “Santana”
INDEX 00 31:07:57
INDEX 01 31:09:40
TRACK 09 AUDIO
TITLE “El Nicoya”
PERFORMER “Santana”
INDEX 00 35:18:30
INDEX 01 35:20:15


0

Publication author

offline 15 hours

Chaos

3
Comments: 4Publics: 3418Registration: 02-02-2019
Spread the Download

Leave a Reply

Your email address will not be published. Required fields are marked *

Enter the text from the image below
 

This site uses Akismet to reduce spam. Learn how your comment data is processed.