Santana – 3




No Cover available

Artist: Santana
Year: 1971/1986
Genre: Rock
Notes: Discogs
Add. Notes:
Cover incl.: Yes
Encoder: FLAC
Bitrate: ~1000 kBit/s (44.1 kHz/16 Bit/s)
Log & Cue incl.: Yes/Yes
Size: 330,6 MB
Password: “slam” (without ” “)


All Downloads/Hosters are compatible

Download 1
KatFile.com
Turbobit.net
FileFactory.com
Rapidgator.net
Download 2
KatFile.com
Turbobit.net
FileFactory.com
Rapidgator.net

Tracklist:

1 Batuka 3:35
2 No One To Depend On 5:25
3 Taboo 5:40
4 Toussaint L'Overture 5:54
5 Everybody's Everything 3:30
6 Guajira 5:50
7 Jungle Strut 5:19
8 Everything's Coming Our Way 3:19
9 Para Los Rumberos 2:44

EAC-Log, CUE-Sheed & NFO:

Click to open spoiler
Exact Audio Copy V1.0 beta 3 from 29. August 2011

Отчёт EAC об извлечении, выполненном 26. марта 2013, 12:02

Santana / 3

Дисковод: SONY CD-RW CRX230ED Adapter: 0 ID: 1

Режим чтения : Достоверность
Использование точного потока : Да
Отключение кэша аудио : Да
Использование указателей C2 : Нет

Коррекция смещения при чтении : 6
Способность читать области Lead-in и Lead-out : Нет
Заполнение пропущенных сэмплов тишиной : Да
Удаление блоков с тишиной в начале и конце : Нет
При вычислениях CRC использовались нулевые сэмплы : Да
Интерфейс : Установленный внешний ASPI-интерфейс

Выходной формат : Внутренние WAV-операции
Формат сэмплов : 44.100 Гц; 16 бит; стерео

TOC извлечённого CD

Трек | Старт | Длительность | Начальный сектор | Конечный сектор
———————————————————————
1 | 0:00.00 | 3:34.72 | 0 | 16121
2 | 3:34.72 | 5:31.45 | 16122 | 40991
3 | 9:06.42 | 5:34.15 | 40992 | 66056
4 | 14:40.57 | 5:57.18 | 66057 | 92849
5 | 20:38.00 | 3:30.47 | 92850 | 108646
6 | 24:08.47 | 5:45.10 | 108647 | 134531
7 | 29:53.57 | 5:23.08 | 134532 | 158764
8 | 35:16.65 | 3:15.12 | 158765 | 173401
9 | 38:32.02 | 2:47.30 | 173402 | 185956

Характеристики диапазона извлечения и сообщения об ошибках

Выбранный диапазон

Имя файла E:\MusicCD\Torrent\Santana\Santana – 3\Santana – 3.wav

Пиковый уровень 100.0 %
Скорость извлечения 7.2 X
Качество диапазона 100.0 %
CRC теста 872C8231
CRC копии 872C8231
Копирование… OK

Ошибок не произошло

AccurateRip: сводка

Трек 1 : извлечено точно (доверие 3) [9D25C927] (AR v2)
Трек 2 : извлечено точно (доверие 3) [6BC305FD] (AR v2)
Трек 3 : извлечено точно (доверие 3) [62008885] (AR v2)
Трек 4 : извлечено точно (доверие 3) [3776E71F] (AR v2)
Трек 5 : извлечено точно (доверие 3) [D85AF0E5] (AR v2)
Трек 6 : извлечено точно (доверие 3) [A8472809] (AR v2)
Трек 7 : извлечено точно (доверие 3) [BE4F9AC8] (AR v2)
Трек 8 : извлечено точно (доверие 3) [419D1126] (AR v2)
Трек 9 : извлечено точно (доверие 3) [420D0D57] (AR v2)

Все треки извлечены точно

Конец отчёта

==== Контрольная сумма отчёта F310E10A12094D810FF12DB1305C0982B63C87B796E6FA75C8017D3DF9897E50 ====

REM GENRE Rock
REM DATE 1971
REM DISCID 6B09AF09
REM COMMENT “ExactAudioCopy v1.0b3”
PERFORMER “Santana”
TITLE “3”
FILE “Santana – 3.flac” WAVE
TRACK 01 AUDIO
TITLE “Batuka”
PERFORMER “Santana”
INDEX 01 00:00:00
TRACK 02 AUDIO
TITLE “No One To Depend On”
PERFORMER “Santana”
INDEX 01 03:34:72
TRACK 03 AUDIO
TITLE “Taboo”
PERFORMER “Santana”
INDEX 01 09:06:42
TRACK 04 AUDIO
TITLE “Toussaint L’Overture”
PERFORMER “Santana”
INDEX 01 14:40:57
TRACK 05 AUDIO
TITLE “Everybody’s Everything”
PERFORMER “Santana”
INDEX 01 20:38:00
TRACK 06 AUDIO
TITLE “Guajira”
PERFORMER “Santana”
INDEX 00 24:05:55
INDEX 01 24:08:47
TRACK 07 AUDIO
TITLE “Jungle Strut”
PERFORMER “Santana”
INDEX 00 29:52:05
INDEX 01 29:53:57
TRACK 08 AUDIO
TITLE “Everything’s Coming Our Way”
PERFORMER “Santana”
INDEX 00 35:14:17
INDEX 01 35:16:65
TRACK 09 AUDIO
TITLE “Para Los Rumberos”
PERFORMER “Santana”
INDEX 01 38:32:02


Leave a Reply

Your email address will not be published. Required fields are marked *

Enter the text from the image below
 

This site uses Akismet to reduce spam. Learn how your comment data is processed.