Sandra Nasic – The Signal




Artist: Sandra Nasic
Year: 2007
Genre: Rock
Notes: Discogs
Add. Notes:
Cover incl.: Yes
Encoder: ALAC
Bitrate: ~1000 kBit/s (44.1 kHz/16 Bit/s)
Log & Cue incl.: Yes
Size: 370,05 MB
Password: “slam” (without ” “)


All Downloads/Hosters are compatible

Download 1
Turbobit.net
Rapidgator.net
UploadEver.com
KatFile.com
UsersDrive.com
Download 2
Turbobit.net
Rapidgator.net
UploadEver.com
KatFile.com
UsersDrive.com
Download 3
Turbobit.net
Rapidgator.net
UploadEver.com
KatFile.com
UsersDrive.com

Tracklist:

1 - The Name Of My Baby - 3:53
2 - Sorry - 3:48
3 - Right Lane - 4:08
4 - Fever - 3:23
5 - Mecasanova (Yam Yam) - 3:57
6 - Do It Again - 3:23
7 - Stop The Crying - 3:32
8 - Old Shack - 3:22
9 - Big City - 3:30
10 - Perfume - 3:43
11 - The Signal - 3:56
12 - Counting Trees - 4:40

EAC-Log, CUE-Sheed & NFO:

Click to open spoiler
Exact Audio Copy V0.99 prebeta 5 from 4. May 2009

EAC extraction logfile from 2. September 2010, 10:21

Sandra Nasic / The Signal

Used drive : HL-DT-STDVDRAM GSA-H42N Adapter: 1 ID: 0

Read mode : Secure
Utilize accurate stream : Yes
Defeat audio cache : Yes
Make use of C2 pointers : No

Read offset correction : 667
Overread into Lead-In and Lead-Out : No
Fill up missing offset samples with silence : Yes
Delete leading and trailing silent blocks : No
Null samples used in CRC calculations : Yes
Used interface : Native Win32 interface for Win NT & 2000
Gap handling : Appended to previous track

Used output format : User Defined Encoder
Selected bitrate : 320 kBit/s
Quality : High
Add ID3 tag : No
Command line compressor : C:\Program Files\Exact Audio Copy\Flac\flac.exe
Additional command line options : -8 -V -T “ARTIST=%a” -T “TITLE=%t” -T “ALBUM=%g” -T “DATE=%y” -T “TRACKNUMBER=%n” -T “GENRE=%m” -T “COMMENT=ripped by ahtoxa_m” %s

TOC of the extracted CD

Track | Start | Length | Start sector | End sector
———————————————————
1 | 0:00.00 | 3:54.07 | 0 | 17556
2 | 3:54.07 | 3:46.23 | 17557 | 34529
3 | 7:40.30 | 4:08.26 | 34530 | 53155
4 | 11:48.56 | 3:23.67 | 53156 | 68447
5 | 15:12.48 | 3:55.55 | 68448 | 86127
6 | 19:08.28 | 3:23.60 | 86128 | 101412
7 | 22:32.13 | 3:32.58 | 101413 | 117370
8 | 26:04.71 | 3:20.30 | 117371 | 132400
9 | 29:25.26 | 3:28.16 | 132401 | 148016
10 | 32:53.42 | 3:41.08 | 148017 | 164599
11 | 36:34.50 | 3:53.68 | 164600 | 182142
12 | 40:28.43 | 4:39.36 | 182143 | 203103

Track 1

Filename C:\Sandra Nasic – 2007 – The Signal (88697 20540 2)\01. Sandra Nasic – The Name Of My Baby.wav

Pre-gap length 0:00:02.00

Peak level 98.8 %
Track quality 99.9 %
Test CRC 68CB544F
Copy CRC 68CB544F
Cannot be verified as accurate (confidence 13) [0A30EA68], AccurateRip returned [0A4D8D88]
Copy OK

Track 2

Filename C:\Sandra Nasic – 2007 – The Signal (88697 20540 2)\02. Sandra Nasic – Sorry.wav

Peak level 98.8 %
Track quality 100.0 %
Test CRC 51BBA013
Copy CRC 51BBA013
Cannot be verified as accurate (confidence 13) [8DB1D142], AccurateRip returned [F74A5C7E]
Copy OK

Track 3

Filename C:\Sandra Nasic – 2007 – The Signal (88697 20540 2)\03. Sandra Nasic – Right Lane.wav

Peak level 98.8 %
Track quality 100.0 %
Test CRC 2F48F73A
Copy CRC 2F48F73A
Cannot be verified as accurate (confidence 13) [5899B252], AccurateRip returned [F681B192]
Copy OK

Track 4

Filename C:\Sandra Nasic – 2007 – The Signal (88697 20540 2)\04. Sandra Nasic – Fever.wav

Peak level 98.8 %
Track quality 99.9 %
Test CRC EF781766
Copy CRC EF781766
Cannot be verified as accurate (confidence 13) [1C99B6AC], AccurateRip returned [DA6FB85C]
Copy OK

Track 5

Filename C:\Sandra Nasic – 2007 – The Signal (88697 20540 2)\05. Sandra Nasic – Mecasanova (Yam Yam).wav

Peak level 98.8 %
Track quality 100.0 %
Test CRC 3958DF77
Copy CRC 3958DF77
Cannot be verified as accurate (confidence 13) [D86B8E54], AccurateRip returned [29EF0F0D]
Copy OK

Track 6

Filename C:\Sandra Nasic – 2007 – The Signal (88697 20540 2)\06. Sandra Nasic – Do It Again.wav

Peak level 98.8 %
Track quality 100.0 %
Test CRC 27338DD4
Copy CRC 27338DD4
Cannot be verified as accurate (confidence 13) [16F0E0A7], AccurateRip returned [A025CEB5]
Copy OK

Track 7

Filename C:\Sandra Nasic – 2007 – The Signal (88697 20540 2)\07. Sandra Nasic – Stop The Crying.wav

Peak level 98.8 %
Track quality 100.0 %
Test CRC 4624B8FA
Copy CRC 4624B8FA
Cannot be verified as accurate (confidence 13) [3D7F90AF], AccurateRip returned [6E3464EB]
Copy OK

Track 8

Filename C:\Sandra Nasic – 2007 – The Signal (88697 20540 2)\08. Sandra Nasic – Old Shack.wav

Peak level 98.8 %
Track quality 100.0 %
Test CRC ED53E2EB
Copy CRC ED53E2EB
Cannot be verified as accurate (confidence 13) [D60C72B4], AccurateRip returned [F3D8032A]
Copy OK

Track 9

Filename C:\Sandra Nasic – 2007 – The Signal (88697 20540 2)\09. Sandra Nasic – Big City.wav

Peak level 98.8 %
Track quality 99.9 %
Test CRC C849E11D
Copy CRC C849E11D
Cannot be verified as accurate (confidence 13) [A1042CA8], AccurateRip returned [7BA3EE89]
Copy OK

Track 10

Filename C:\Sandra Nasic – 2007 – The Signal (88697 20540 2)\10. Sandra Nasic – Perfume.wav

Peak level 98.8 %
Track quality 100.0 %
Test CRC 5EF04C39
Copy CRC 5EF04C39
Cannot be verified as accurate (confidence 13) [BC6EF065], AccurateRip returned [D3B74907]
Copy OK

Track 11

Filename C:\Sandra Nasic – 2007 – The Signal (88697 20540 2)\11. Sandra Nasic – The Signal.wav

Peak level 98.8 %
Track quality 100.0 %
Test CRC B844B07A
Copy CRC B844B07A
Cannot be verified as accurate (confidence 13) [886698ED], AccurateRip returned [B6B9FA85]
Copy OK

Track 12

Filename C:\Sandra Nasic – 2007 – The Signal (88697 20540 2)\12. Sandra Nasic – Counting Trees.wav

Peak level 98.8 %
Track quality 100.0 %
Test CRC 4F1AAA76
Copy CRC 4F1AAA76
Cannot be verified as accurate (confidence 12) [D945107B], AccurateRip returned [F3C2F313]
Copy OK

No tracks could be verified as accurate
You may have a different pressing from the one(s) in the database

No errors occurred

End of status report

REM GENRE “Alternative Rock”
REM DATE 2007
REM DISCID 9B0A940C
REM COMMENT “ExactAudioCopy v0.99pb5”
PERFORMER “Sandra Nasic”
TITLE “The Signal”
REM DISCNUMBER 1
REM TOTALDISCS 1
FILE “01. The Name Of My Baby.m4a” WAVE
TRACK 01 AUDIO
TITLE “The Name Of My Baby”
PERFORMER “Sandra Nasic”
INDEX 01 00:00:00
FILE “02. Sorry.m4a” WAVE
TRACK 02 AUDIO
TITLE “Sorry”
PERFORMER “Sandra Nasic”
INDEX 01 00:00:00
FILE “03. Right Lane.m4a” WAVE
TRACK 03 AUDIO
TITLE “Right Lane”
PERFORMER “Sandra Nasic”
INDEX 01 00:00:00
FILE “04. Fever.m4a” WAVE
TRACK 04 AUDIO
TITLE “Fever”
PERFORMER “Sandra Nasic”
INDEX 01 00:00:00
FILE “05. Mecasanova (Yam Yam).m4a” WAVE
TRACK 05 AUDIO
TITLE “Mecasanova (Yam Yam)”
PERFORMER “Sandra Nasic”
INDEX 01 00:00:00
FILE “06. Do It Again.m4a” WAVE
TRACK 06 AUDIO
TITLE “Do It Again”
PERFORMER “Sandra Nasic”
INDEX 01 00:00:00
FILE “07. Stop The Crying.m4a” WAVE
TRACK 07 AUDIO
TITLE “Stop The Crying”
PERFORMER “Sandra Nasic”
INDEX 01 00:00:00
FILE “08. Old Shack.m4a” WAVE
TRACK 08 AUDIO
TITLE “Old Shack”
PERFORMER “Sandra Nasic”
INDEX 01 00:00:00
FILE “09. Big City.m4a” WAVE
TRACK 09 AUDIO
TITLE “Big City”
PERFORMER “Sandra Nasic”
INDEX 01 00:00:00
FILE “10. Perfume.m4a” WAVE
TRACK 10 AUDIO
TITLE “Perfume”
PERFORMER “Sandra Nasic”
INDEX 01 00:00:00
FILE “11. The Signal.m4a” WAVE
TRACK 11 AUDIO
TITLE “The Signal”
PERFORMER “Sandra Nasic”
INDEX 01 00:00:00
FILE “12. Counting Trees.m4a” WAVE
TRACK 12 AUDIO
TITLE “Counting Trees”
PERFORMER “Sandra Nasic”
INDEX 01 00:00:00


Leave a Reply

Your email address will not be published. Required fields are marked *

This site uses Akismet to reduce spam. Learn how your comment data is processed.