Saltatio Mortis – Sturm aufs Paradies




No Cover available

Artist: Saltatio Mortis
Year: 2011
Genre: Rock
Notes: Discogs
Add. Notes:
Watch Songs on: YouTube
Cover incl.: Yes
Encoder: FLAC
Bitrate: ~1000 kBit/s (44.1 kHz/16 Bit/s)
Log & Cue incl.: Yes
Size: 459,2 MB
Password: “slam” (without ” “)


All Downloads/Hosters are compatible

Download 1
KatFile.com
Turbobit.net
FileFactory.com
Rapidgator.net
Download 2
KatFile.com
Turbobit.net
FileFactory.com
Rapidgator.net

Tracklist:

1 - Habgier Und Tod - 3:39
2 - Hochzeitstanz - 4:22
3 - Ode An Die Feindschaft - 3:23
4 - Eulenspiegel - 3:42
5 - Sündenfall - 3:22
6 - Nachtigall Und Rose - 4:50
7 - Gott Würfelt Nicht - 4:14
8 - Nach Jahr Und Tag - 3:41
9 - Orpheus - 4:54
10 - Spiel Mit Dem Feuer - 3:47
11 - Fiat Lux - 3:35
12 - Der Letzte Spielmann - 3:39
13 - Wieder Unterwegs - 3:31

EAC-Log, CUE-Sheed & NFO:

Click to open spoiler
Exact Audio Copy V0.99 prebeta 5 from 4. May 2009

EAC extraction logfile from 14. September 2011, 22:23

Saltatio Mortis / Sturm aufs Paradies

Used drive : PLEXTOR DVDR PX-860A Adapter: 0 ID: 0

Read mode : Secure
Utilize accurate stream : Yes
Defeat audio cache : Yes
Make use of C2 pointers : No

Read offset correction : 96
Overread into Lead-In and Lead-Out : No
Fill up missing offset samples with silence : Yes
Delete leading and trailing silent blocks : No
Null samples used in CRC calculations : Yes
Used interface : Installed external ASPI interface

Used output format : User Defined Encoder
Selected bitrate : 1024 kBit/s
Quality : High
Add ID3 tag : Yes
Command line compressor : C:\Program Files\Exact Audio Copy\FLAC.EXE
Additional command line options : -6 -V %s

TOC of the extracted CD

Track | Start | Length | Start sector | End sector
———————————————————
1 | 0:00.00 | 3:38.71 | 0 | 16420
2 | 3:38.71 | 4:21.65 | 16421 | 36060
3 | 8:00.61 | 3:23.16 | 36061 | 51301
4 | 11:24.02 | 3:42.16 | 51302 | 67967
5 | 15:06.18 | 3:22.23 | 67968 | 83140
6 | 18:28.41 | 4:49.60 | 83141 | 104875
7 | 23:18.26 | 4:14.05 | 104876 | 123930
8 | 27:32.31 | 3:41.35 | 123931 | 140540
9 | 31:13.66 | 4:53.62 | 140541 | 162577
10 | 36:07.53 | 3:47.35 | 162578 | 179637
11 | 39:55.13 | 3:34.40 | 179638 | 195727
12 | 43:29.53 | 3:38.48 | 195728 | 212125
13 | 47:08.26 | 3:26.09 | 212126 | 227584

Range status and errors

Selected range

Filename J:\MUSIC\Saltatio Mortis – Sturm aufs Paradies.wav

Peak level 97.2 %
Range quality 100.0 %
Test CRC DB588F74
Copy CRC DB588F74
Copy OK

No errors occurred

AccurateRip summary

Track 1 not present in database
Track 2 not present in database
Track 3 not present in database
Track 4 not present in database
Track 5 not present in database
Track 6 not present in database
Track 7 not present in database
Track 8 not present in database
Track 9 not present in database
Track 10 not present in database
Track 11 not present in database
Track 12 not present in database
Track 13 not present in database

None of the tracks are present in the AccurateRip database

End of status report

REM GENRE Rock
REM DATE 2011
REM DISCID A40BDA0D
REM COMMENT “ExactAudioCopy v0.99pb5”
PERFORMER “Saltatio Mortis”
TITLE “Sturm aufs Paradies”
FILE “Saltatio Mortis – Sturm aufs Paradies.flac” WAVE
TRACK 01 AUDIO
TITLE “Habgier und Tod”
PERFORMER “Saltatio Mortis”
INDEX 01 00:00:00
TRACK 02 AUDIO
TITLE “Hochzeitstanz”
PERFORMER “Saltatio Mortis”
INDEX 00 03:36:41
INDEX 01 03:38:71
TRACK 03 AUDIO
TITLE “Ode an die Feindschaft”
PERFORMER “Saltatio Mortis”
INDEX 00 07:57:62
INDEX 01 08:00:61
TRACK 04 AUDIO
TITLE “Eulenspiegel”
PERFORMER “Saltatio Mortis”
INDEX 00 11:22:03
INDEX 01 11:24:02
TRACK 05 AUDIO
TITLE “Sündenfall”
PERFORMER “Saltatio Mortis”
INDEX 00 15:04:19
INDEX 01 15:06:18
TRACK 06 AUDIO
TITLE “Nachtigall und Rose ”
PERFORMER “Saltatio Mortis”
INDEX 00 18:27:14
INDEX 01 18:28:41
TRACK 07 AUDIO
TITLE “Gott würfelt nicht”
PERFORMER “Saltatio Mortis”
INDEX 00 23:15:28
INDEX 01 23:18:26
TRACK 08 AUDIO
TITLE “Nach Jahr und Tag”
PERFORMER “Saltatio Mortis”
INDEX 00 27:30:32
INDEX 01 27:32:31
TRACK 09 AUDIO
TITLE “Orpheus”
PERFORMER “Saltatio Mortis”
INDEX 00 31:10:67
INDEX 01 31:13:66
TRACK 10 AUDIO
TITLE “Spiel mit dem Feuer”
PERFORMER “Saltatio Mortis”
INDEX 00 36:05:54
INDEX 01 36:07:53
TRACK 11 AUDIO
TITLE “Fiat Lux”
PERFORMER “Saltatio Mortis”
INDEX 00 39:53:14
INDEX 01 39:55:13
TRACK 12 AUDIO
TITLE “Der letzte Spielmann”
PERFORMER “Saltatio Mortis”
INDEX 00 43:28:55
INDEX 01 43:29:53
TRACK 13 AUDIO
TITLE “Wieder unterwegs”
PERFORMER “Saltatio Mortis”
INDEX 00 47:06:67
INDEX 01 47:08:26


Leave a Reply

Your email address will not be published. Required fields are marked *

This site uses Akismet to reduce spam. Learn how your comment data is processed.