Saltatio Mortis – Brot Und Spiele (Limited Deluxe Edition)




Artist: Saltatio Mortis
Year: 2018
Genre: Rock
Notes: Discogs
Add. Notes: Limited Deluxe Edition
Cover incl.: Yes
Encoder: FLAC
Bitrate: ~1000 kBit/s (44.1 kHz/16 Bit/s)
Log & Cue incl.: Yes
Size: 621,08 MB
Password: “slam” (without ” “)


All Downloads/Hosters are compatible

Download 1
Turbobit.net
Rapidgator.net
KatFile.com
UploadRar.com
Download 2
Turbobit.net
Rapidgator.net
KatFile.com
UploadRar.com
Download 3
Turbobit.net
Rapidgator.net
KatFile.com
UploadRar.com

Tracklist:

Brot Und Spiele
1-1 - Ein Stück Unsterblichkeit - 1:36
1-2 - Grosse Träume - 3:20
1-3 - Dorn Im Ohr - 3:37
1-4 - Ich Werde Wind - 3:45
1-5 - Europa - 3:33
1-6 - Spur Des Lebens - 4:01
1-7 - Brot Und Spiele - 3:37
1-8 - Nie Wieder Alkohol - 3:01
1-9 - Träume Aus Eis - 3:16
1-10 - Mittelalter - 3:33
1-11 - Brunhild - 3:38
1-12 - Besorgter Bürger - 3:05
1-13 - Sie Tanzt Allein - 3:24
Panem Et Circenses - Ad Fontes
2-1 - Präludium - Ad Fontes - 2:44
2-2 - Heimdall - 3:17
2-3 - Drachentanz - 2:26
2-4 - Schon Wieder Herbst - 4:24
2-5 - Epitaph To A Friend - 3:54
2-6 - Ad Digitum Prurigo - 2:59
2-7 - Herr Holkin - 3:53
2-8 - Raghs-E-Pari - 2:47
2-9 - Tränen Des Teufels - 4:15
2-10 - Amo Lem Ad Nauseam - 3:09
2-11 - Marselha - 3:29
2-12 - Volta - 3:29
2-13 - Mitt Hjerte Alltid Vanker - 3:06

EAC-Log, CUE-Sheed & NFO:

Click to open spoiler
Exact Audio Copy V1.3 from 2. September 2016

EAC extraction logfile from 18. August 2018, 15:17

Saltatio Mortis / Brot und Spiele

Used drive : hp DVD A DH16ABSH Adapter: 1 ID: 0

Read mode : Secure
Utilize accurate stream : Yes
Defeat audio cache : Yes
Make use of C2 pointers : No

Read offset correction : 6
Overread into Lead-In and Lead-Out : No
Fill up missing offset samples with silence : Yes
Delete leading and trailing silent blocks : No
Null samples used in CRC calculations : Yes
Used interface : Native Win32 interface for Win NT & 2000
Gap handling : Appended to previous track

Used output format : User Defined Encoder
Selected bitrate : 1024 kBit/s
Quality : High
Add ID3 tag : No
Command line compressor : C:\Program Files (x86)\Exact Audio Copy\Flac\flac.exe
Additional command line options : -8 -e -p -V -T “ARTIST=%artist%” -T “TITLE=%title%” -T “ALBUM=%albumtitle%” -T “DATE=%year%” -T “TRACKNUMBER=%tracknr%” -T “GENRE=%genre%” -T “PERFORMER=%albuminterpret%” -T “COMPOSER=%composer%” %haslyrics%–tag-from-file=LYRICS=”%lyricsfile%”%haslyrics% -T “ALBUMARTIST=%albumartist%” -T “DISCNUMBER=%cdnumber%” -T “TOTALDISCS=%totalcds%” -T “TOTALTRACKS=%numtracks%” -T “COMMENT=%comment%” %source% -o %dest%

TOC of the extracted CD

Track | Start | Length | Start sector | End sector
———————————————————
1 | 0:00.00 | 1:36.11 | 0 | 7210
2 | 1:36.11 | 3:19.51 | 7211 | 22186
3 | 4:55.62 | 3:36.54 | 22187 | 38440
4 | 8:32.41 | 3:45.28 | 38441 | 55343
5 | 12:17.69 | 3:33.27 | 55344 | 71345
6 | 15:51.21 | 4:00.51 | 71346 | 89396
7 | 19:51.72 | 3:36.39 | 89397 | 105635
8 | 23:28.36 | 3:00.51 | 105636 | 119186
9 | 26:29.12 | 3:16.19 | 119187 | 133905
10 | 29:45.31 | 3:33.28 | 133906 | 149908
11 | 33:18.59 | 3:37.45 | 149909 | 166228
12 | 36:56.29 | 3:05.22 | 166229 | 180125
13 | 40:01.51 | 3:23.46 | 180126 | 195396

Track 1

Filename D:\Downloads\Saltatio Mortis – Brot und Spiele [FLAC] {2018}\01 Ein Stück Unsterblichkeit.wav

Pre-gap length 0:00:02.00

Peak level 100.0 %
Extraction speed 2.7 X
Track quality 100.0 %
Test CRC BB8DBEF9
Copy CRC BB8DBEF9
Track not present in AccurateRip database
Copy OK

Track 2

Filename D:\Downloads\Saltatio Mortis – Brot und Spiele [FLAC] {2018}\02 Große Träume.wav

Peak level 100.0 %
Extraction speed 3.4 X
Track quality 100.0 %
Test CRC 851245C5
Copy CRC 851245C5
Track not present in AccurateRip database
Copy OK

Track 3

Filename D:\Downloads\Saltatio Mortis – Brot und Spiele [FLAC] {2018}\03 Dorn im Ohr.wav

Peak level 100.0 %
Extraction speed 3.8 X
Track quality 100.0 %
Test CRC AD632B8E
Copy CRC AD632B8E
Track not present in AccurateRip database
Copy OK

Track 4

Filename D:\Downloads\Saltatio Mortis – Brot und Spiele [FLAC] {2018}\04 Ich werde Wind.wav

Peak level 100.0 %
Extraction speed 4.2 X
Track quality 100.0 %
Test CRC B5B985FA
Copy CRC B5B985FA
Track not present in AccurateRip database
Copy OK

Track 5

Filename D:\Downloads\Saltatio Mortis – Brot und Spiele [FLAC] {2018}\05 Europa.wav

Peak level 100.0 %
Extraction speed 4.4 X
Track quality 100.0 %
Test CRC 0EB57CA1
Copy CRC 0EB57CA1
Track not present in AccurateRip database
Copy OK

Track 6

Filename D:\Downloads\Saltatio Mortis – Brot und Spiele [FLAC] {2018}\06 Spur des Lebens.wav

Peak level 100.0 %
Extraction speed 3.8 X
Track quality 99.9 %
Test CRC A7D24DF3
Copy CRC A7D24DF3
Track not present in AccurateRip database
Copy OK

Track 7

Filename D:\Downloads\Saltatio Mortis – Brot und Spiele [FLAC] {2018}\07 Brot und Spiele.wav

Peak level 98.8 %
Extraction speed 4.9 X
Track quality 100.0 %
Test CRC ECF4B508
Copy CRC ECF4B508
Track not present in AccurateRip database
Copy OK

Track 8

Filename D:\Downloads\Saltatio Mortis – Brot und Spiele [FLAC] {2018}\08 Nie wieder Alkohol.wav

Peak level 100.0 %
Extraction speed 5.0 X
Track quality 100.0 %
Test CRC 0C2B98AC
Copy CRC 0C2B98AC
Track not present in AccurateRip database
Copy OK

Track 9

Filename D:\Downloads\Saltatio Mortis – Brot und Spiele [FLAC] {2018}\09 Träume aus Eis.wav

Peak level 100.0 %
Extraction speed 5.2 X
Track quality 100.0 %
Test CRC 1DED2CA5
Copy CRC 1DED2CA5
Track not present in AccurateRip database
Copy OK

Track 10

Filename D:\Downloads\Saltatio Mortis – Brot und Spiele [FLAC] {2018}\10 Mittelalter.wav

Peak level 100.0 %
Extraction speed 5.5 X
Track quality 100.0 %
Test CRC 16A7E3F2
Copy CRC 16A7E3F2
Track not present in AccurateRip database
Copy OK

Track 11

Filename D:\Downloads\Saltatio Mortis – Brot und Spiele [FLAC] {2018}\11 Brunhild.wav

Peak level 100.0 %
Extraction speed 5.7 X
Track quality 100.0 %
Test CRC 9032E41A
Copy CRC 9032E41A
Track not present in AccurateRip database
Copy OK

Track 12

Filename D:\Downloads\Saltatio Mortis – Brot und Spiele [FLAC] {2018}\12 Besorgter Bürger.wav

Peak level 100.0 %
Extraction speed 5.7 X
Track quality 100.0 %
Test CRC C0CA45C9
Copy CRC C0CA45C9
Track not present in AccurateRip database
Copy OK

Track 13

Filename D:\Downloads\Saltatio Mortis – Brot und Spiele [FLAC] {2018}\13 Sie tanzt allein.wav

Peak level 100.0 %
Extraction speed 6.0 X
Track quality 100.0 %
Test CRC A3576B41
Copy CRC A3576B41
Track not present in AccurateRip database
Copy OK

None of the tracks are present in the AccurateRip database

No errors occurred

End of status report

—- CUETools DB Plugin V2.1.6

[CTDB TOCID: HeFTfw0Jf5SHQ77mRdAAKYO5MXg-] found
Submit result: HeFTfw0Jf5SHQ77mRdAAKYO5MXg- has been confirmed
Track | CTDB Status
1 | (34/34) Accurately ripped
2 | (34/34) Accurately ripped
3 | (34/34) Accurately ripped
4 | (34/34) Accurately ripped
5 | (34/34) Accurately ripped
6 | (34/34) Accurately ripped
7 | (34/34) Accurately ripped
8 | (34/34) Accurately ripped
9 | (34/34) Accurately ripped
10 | (34/34) Accurately ripped
11 | (34/34) Accurately ripped
12 | (34/34) Accurately ripped
13 | (34/34) Accurately ripped

==== Log checksum 312B22DCFE6556B8D156C889A728D7C5A92C4212E94175AA04364A3FA42FC6B1 ====

Exact Audio Copy V1.3 from 2. September 2016

EAC extraction logfile from 18. August 2018, 15:55

Saltatio Mortis / Panem et circenses – ad fontes

Used drive : hp DVD A DH16ABSH Adapter: 1 ID: 0

Read mode : Secure
Utilize accurate stream : Yes
Defeat audio cache : Yes
Make use of C2 pointers : No

Read offset correction : 6
Overread into Lead-In and Lead-Out : No
Fill up missing offset samples with silence : Yes
Delete leading and trailing silent blocks : No
Null samples used in CRC calculations : Yes
Used interface : Native Win32 interface for Win NT & 2000
Gap handling : Appended to previous track

Used output format : User Defined Encoder
Selected bitrate : 1024 kBit/s
Quality : High
Add ID3 tag : No
Command line compressor : C:\Program Files (x86)\Exact Audio Copy\Flac\flac.exe
Additional command line options : -8 -e -p -V -T “ARTIST=%artist%” -T “TITLE=%title%” -T “ALBUM=%albumtitle%” -T “DATE=%year%” -T “TRACKNUMBER=%tracknr%” -T “GENRE=%genre%” -T “PERFORMER=%albuminterpret%” -T “COMPOSER=%composer%” %haslyrics%–tag-from-file=LYRICS=”%lyricsfile%”%haslyrics% -T “ALBUMARTIST=%albumartist%” -T “DISCNUMBER=%cdnumber%” -T “TOTALDISCS=%totalcds%” -T “TOTALTRACKS=%numtracks%” -T “COMMENT=%comment%” %source% -o %dest%

TOC of the extracted CD

Track | Start | Length | Start sector | End sector
———————————————————
1 | 0:00.00 | 2:43.66 | 0 | 12290
2 | 2:43.66 | 3:16.61 | 12291 | 27051
3 | 6:00.52 | 2:25.56 | 27052 | 37982
4 | 8:26.33 | 4:24.08 | 37983 | 57790
5 | 12:50.41 | 3:54.35 | 57791 | 75375
6 | 16:45.01 | 2:58.53 | 75376 | 88778
7 | 19:43.54 | 3:52.61 | 88779 | 106239
8 | 23:36.40 | 2:47.26 | 106240 | 118790
9 | 26:23.66 | 4:14.41 | 118791 | 137881
10 | 30:38.32 | 3:08.58 | 137882 | 152039
11 | 33:47.15 | 3:28.45 | 152040 | 167684
12 | 37:15.60 | 3:29.08 | 167685 | 183367
13 | 40:44.68 | 3:05.46 | 183368 | 197288

Track 1

Filename D:\Downloads\Saltatio Mortis – Panem et circenses – ad fontes [FLAC] {2018}\01 Präludium – Ad fontes.wav

Pre-gap length 0:00:02.00

Peak level 98.8 %
Extraction speed 3.1 X
Track quality 100.0 %
Test CRC 7ACA81BD
Copy CRC 7ACA81BD
Track not present in AccurateRip database
Copy OK

Track 2

Filename D:\Downloads\Saltatio Mortis – Panem et circenses – ad fontes [FLAC] {2018}\02 Heimdall.wav

Peak level 98.8 %
Extraction speed 3.6 X
Track quality 100.0 %
Test CRC 98057B4E
Copy CRC 98057B4E
Track not present in AccurateRip database
Copy OK

Track 3

Filename D:\Downloads\Saltatio Mortis – Panem et circenses – ad fontes [FLAC] {2018}\03 Drachentanz.wav

Peak level 98.8 %
Extraction speed 2.7 X
Track quality 99.9 %
Test CRC 3F9312B5
Copy CRC 3F9312B5
Track not present in AccurateRip database
Copy OK

Track 4

Filename D:\Downloads\Saltatio Mortis – Panem et circenses – ad fontes [FLAC] {2018}\04 Schon wieder Herbst.wav

Peak level 100.0 %
Extraction speed 4.3 X
Track quality 100.0 %
Test CRC BBEEDEE6
Copy CRC BBEEDEE6
Track not present in AccurateRip database
Copy OK

Track 5

Filename D:\Downloads\Saltatio Mortis – Panem et circenses – ad fontes [FLAC] {2018}\05 Epitaph to a friend.wav

Peak level 98.8 %
Extraction speed 4.5 X
Track quality 100.0 %
Test CRC E42DC4E8
Copy CRC E42DC4E8
Track not present in AccurateRip database
Copy OK

Track 6

Filename D:\Downloads\Saltatio Mortis – Panem et circenses – ad fontes [FLAC] {2018}\06 Ad digitum prurigo.wav

Peak level 98.8 %
Extraction speed 4.6 X
Track quality 100.0 %
Test CRC E5D0548A
Copy CRC E5D0548A
Track not present in AccurateRip database
Copy OK

Track 7

Filename D:\Downloads\Saltatio Mortis – Panem et circenses – ad fontes [FLAC] {2018}\07 Herr Holkin.wav

Peak level 98.8 %
Extraction speed 5.0 X
Track quality 100.0 %
Test CRC 1A4E291F
Copy CRC 1A4E291F
Track not present in AccurateRip database
Copy OK

Track 8

Filename D:\Downloads\Saltatio Mortis – Panem et circenses – ad fontes [FLAC] {2018}\08 Raghs-e-pari.wav

Peak level 98.8 %
Extraction speed 4.8 X
Track quality 100.0 %
Test CRC A0EE93D4
Copy CRC A0EE93D4
Track not present in AccurateRip database
Copy OK

Track 9

Filename D:\Downloads\Saltatio Mortis – Panem et circenses – ad fontes [FLAC] {2018}\09 Tränen des Teufels.wav

Peak level 98.8 %
Extraction speed 5.4 X
Track quality 100.0 %
Test CRC 9D14DBC2
Copy CRC 9D14DBC2
Track not present in AccurateRip database
Copy OK

Track 10

Filename D:\Downloads\Saltatio Mortis – Panem et circenses – ad fontes [FLAC] {2018}\10 Amo lem ad nauseam.wav

Peak level 98.8 %
Extraction speed 5.4 X
Track quality 100.0 %
Test CRC C85E644C
Copy CRC C85E644C
Track not present in AccurateRip database
Copy OK

Track 11

Filename D:\Downloads\Saltatio Mortis – Panem et circenses – ad fontes [FLAC] {2018}\11 Marselha.wav

Peak level 98.8 %
Extraction speed 5.7 X
Track quality 100.0 %
Test CRC 04DA7049
Copy CRC 04DA7049
Track not present in AccurateRip database
Copy OK

Track 12

Filename D:\Downloads\Saltatio Mortis – Panem et circenses – ad fontes [FLAC] {2018}\12 Volta.wav

Peak level 98.8 %
Extraction speed 5.8 X
Track quality 100.0 %
Test CRC FDE55022
Copy CRC FDE55022
Track not present in AccurateRip database
Copy OK

Track 13

Filename D:\Downloads\Saltatio Mortis – Panem et circenses – ad fontes [FLAC] {2018}\13 Mitt hjerte alltid vanker.wav

Peak level 94.8 %
Extraction speed 4.5 X
Track quality 99.9 %
Test CRC 58DB98CF
Copy CRC 58DB98CF
Track not present in AccurateRip database
Copy OK

None of the tracks are present in the AccurateRip database

No errors occurred

End of status report

—- CUETools DB Plugin V2.1.6

[CTDB TOCID: LTl6ntpEbSYwC_WHFBL7RxTIpk4-] found
Submit result: LTl6ntpEbSYwC_WHFBL7RxTIpk4- has been confirmed
Track | CTDB Status
1 | (32/32) Accurately ripped
2 | (32/32) Accurately ripped
3 | (32/32) Accurately ripped
4 | (32/32) Accurately ripped
5 | (32/32) Accurately ripped
6 | (32/32) Accurately ripped
7 | (32/32) Accurately ripped
8 | (32/32) Accurately ripped
9 | (32/32) Accurately ripped
10 | (32/32) Accurately ripped
11 | (32/32) Accurately ripped
12 | (32/32) Accurately ripped
13 | (32/32) Accurately ripped

==== Log checksum ABFFAE41682A01BDF8197637A9FFC8035B2260F56790EAD28E7AD92463743875 ====

REM GENRE Folk/Rock
REM DATE 2018
REM DISCID A60A2D0D
REM COMMENT “ExactAudioCopy v1.3”
CATALOG 0602567496793
PERFORMER “Saltatio Mortis”
TITLE “Brot und Spiele”
REM COMPOSER “”
FILE “01 Ein Stück Unsterblichkeit.wav” WAVE
TRACK 01 AUDIO
TITLE “Ein Stück Unsterblichkeit”
PERFORMER “Saltatio Mortis”
REM COMPOSER “”
ISRC DEUM71801413
INDEX 01 00:00:00
FILE “02 Große Träume.wav” WAVE
TRACK 02 AUDIO
TITLE “Große Träume”
PERFORMER “Saltatio Mortis”
REM COMPOSER “”
ISRC DEUM71801414
INDEX 01 00:00:00
FILE “03 Dorn im Ohr.wav” WAVE
TRACK 03 AUDIO
TITLE “Dorn im Ohr”
PERFORMER “Saltatio Mortis”
REM COMPOSER “”
ISRC DEUM71801415
INDEX 01 00:00:00
FILE “04 Ich werde Wind.wav” WAVE
TRACK 04 AUDIO
TITLE “Ich werde Wind”
PERFORMER “Saltatio Mortis”
REM COMPOSER “”
ISRC DEUM71801416
INDEX 01 00:00:00
FILE “05 Europa.wav” WAVE
TRACK 05 AUDIO
TITLE “Europa”
PERFORMER “Saltatio Mortis”
REM COMPOSER “”
ISRC DEUM71801417
INDEX 01 00:00:00
FILE “06 Spur des Lebens.wav” WAVE
TRACK 06 AUDIO
TITLE “Spur des Lebens”
PERFORMER “Saltatio Mortis”
REM COMPOSER “”
ISRC DEUM71801418
INDEX 01 00:00:00
FILE “07 Brot und Spiele.wav” WAVE
TRACK 07 AUDIO
TITLE “Brot und Spiele”
PERFORMER “Saltatio Mortis”
REM COMPOSER “”
ISRC DEUM71801419
INDEX 01 00:00:00
FILE “08 Nie wieder Alkohol.wav” WAVE
TRACK 08 AUDIO
TITLE “Nie wieder Alkohol”
PERFORMER “Saltatio Mortis”
REM COMPOSER “”
ISRC DEUM71801420
INDEX 01 00:00:00
FILE “09 Träume aus Eis.wav” WAVE
TRACK 09 AUDIO
TITLE “Träume aus Eis”
PERFORMER “Saltatio Mortis”
REM COMPOSER “”
ISRC DEUM71801421
INDEX 01 00:00:00
FILE “10 Mittelalter.wav” WAVE
TRACK 10 AUDIO
TITLE “Mittelalter”
PERFORMER “Saltatio Mortis”
REM COMPOSER “”
ISRC DEUM71801422
INDEX 01 00:00:00
FILE “11 Brunhild.wav” WAVE
TRACK 11 AUDIO
TITLE “Brunhild”
PERFORMER “Saltatio Mortis”
REM COMPOSER “”
ISRC DEUM71801423
INDEX 01 00:00:00
FILE “12 Besorgter Bürger.wav” WAVE
TRACK 12 AUDIO
TITLE “Besorgter Bürger”
PERFORMER “Saltatio Mortis”
REM COMPOSER “”
ISRC DEUM71801424
INDEX 01 00:00:00
FILE “13 Sie tanzt allein.wav” WAVE
TRACK 13 AUDIO
TITLE “Sie tanzt allein”
PERFORMER “Saltatio Mortis”
REM COMPOSER “”
ISRC DEUM71801425
INDEX 01 00:00:00

REM GENRE “Mittelalter Metal”
REM DATE 2018
REM DISCID A60A460D
REM COMMENT “ExactAudioCopy v1.3”
CATALOG 0602567496809
PERFORMER “Saltatio Mortis”
TITLE “Panem et circenses – ad fontes”
REM COMPOSER “”
FILE “01 Präludium – Ad fontes.wav” WAVE
TRACK 01 AUDIO
TITLE “Präludium – Ad fontes”
PERFORMER “Saltatio Mortis”
REM COMPOSER “”
ISRC DEUM71801426
INDEX 01 00:00:00
FILE “02 Heimdall.wav” WAVE
TRACK 02 AUDIO
TITLE “Heimdall”
PERFORMER “Saltatio Mortis”
REM COMPOSER “”
ISRC DEUM71801427
INDEX 01 00:00:00
FILE “03 Drachentanz.wav” WAVE
TRACK 03 AUDIO
TITLE “Drachentanz”
PERFORMER “Saltatio Mortis”
REM COMPOSER “”
ISRC DEUM71801428
INDEX 01 00:00:00
FILE “04 Schon wieder Herbst.wav” WAVE
TRACK 04 AUDIO
TITLE “Schon wieder Herbst”
PERFORMER “Saltatio Mortis”
REM COMPOSER “”
ISRC DEUM71801429
INDEX 01 00:00:00
FILE “05 Epitaph to a friend.wav” WAVE
TRACK 05 AUDIO
TITLE “Epitaph to a friend”
PERFORMER “Saltatio Mortis”
REM COMPOSER “”
ISRC DEUM71801430
INDEX 01 00:00:00
FILE “06 Ad digitum prurigo.wav” WAVE
TRACK 06 AUDIO
TITLE “Ad digitum prurigo”
PERFORMER “Saltatio Mortis”
REM COMPOSER “”
ISRC DEUM71801431
INDEX 01 00:00:00
FILE “07 Herr Holkin.wav” WAVE
TRACK 07 AUDIO
TITLE “Herr Holkin”
PERFORMER “Saltatio Mortis”
REM COMPOSER “”
ISRC DEUM71801432
INDEX 01 00:00:00
FILE “08 Raghs-e-pari.wav” WAVE
TRACK 08 AUDIO
TITLE “Raghs-e-pari”
PERFORMER “Saltatio Mortis”
REM COMPOSER “”
ISRC DEUM71801433
INDEX 01 00:00:00
FILE “09 Tränen des Teufels.wav” WAVE
TRACK 09 AUDIO
TITLE “Tränen des Teufels”
PERFORMER “Saltatio Mortis”
REM COMPOSER “”
ISRC DEUM71801434
INDEX 01 00:00:00
FILE “10 Amo lem ad nauseam.wav” WAVE
TRACK 10 AUDIO
TITLE “Amo lem ad nauseam”
PERFORMER “Saltatio Mortis”
REM COMPOSER “”
ISRC DEUM71801435
INDEX 01 00:00:00
FILE “11 Marselha.wav” WAVE
TRACK 11 AUDIO
TITLE “Marselha”
PERFORMER “Saltatio Mortis”
REM COMPOSER “”
ISRC DEUM71801436
INDEX 01 00:00:00
FILE “12 Volta.wav” WAVE
TRACK 12 AUDIO
TITLE “Volta”
PERFORMER “Saltatio Mortis”
REM COMPOSER “”
ISRC DEUM71801437
INDEX 01 00:00:00
FILE “13 Mitt hjerte alltid vanker.wav” WAVE
TRACK 13 AUDIO
TITLE “Mitt hjerte alltid vanker”
PERFORMER “Saltatio Mortis”
REM COMPOSER “”
ISRC DEUM71801438
INDEX 01 00:00:00


Leave a Reply

Your email address will not be published. Required fields are marked *

This site uses Akismet to reduce spam. Learn how your comment data is processed.