Russkaja – Peace, Love & Russian Roll (Limited Edition)




Artist: Russkaja
Year: 2015
Genre: Ska
Notes: Discogs
Add. Notes: Limited Edition
Cover incl.: No
Encoder: FLAC
Bitrate: ~1000 kBit/s (44.1 kHz/16 Bit/s)
Log & Cue incl.: Yes
Size: 314,65 MB
Password: “slam” (without ” “)


All Downloads/Hosters are compatible

Download 1
Turbobit.net
Rapidgator.net
KatFile.com
UploadRar.com
Download 2
Turbobit.net
Rapidgator.net
KatFile.com
UploadRar.com

Tracklist:

1 - Rock'n Roll Today - 4:17
2 - Slap Your Face - 3:07
3 - Hometown Polka - 3:38
4 - There Was A Time - 3:24
5 - El Pueblo Unido - 4:09
6 - Lovegorod - 4:29
7 - Parachute - 2:54
8 - Let's Die Together - 4:24
9 - Salty Rain - 3:36
10 - You Are The Revolution - 3:31
11 - Radio Song - 3:39
12 - Peace, Love & Russian Roll - 2:44

EAC-Log, CUE-Sheed & NFO:

Click to open spoiler
X Lossless Decoder version 20141129 (148.1)

XLD extraction logfile from 2015-08-02 23:49:22 +0200

Russkaja / Peace, Love & Russian Roll

Used drive : MATSHITA DVD-R UJ-8A8 (revision HB14)
Media type : Pressed CD

Ripper mode : XLD Secure Ripper
Disable audio cache : OK for the drive with a cache less than 1375KiB
Make use of C2 pointers : NO
Read offset correction : 102
Max retry count : 100
Gap status : Analyzed, Appended (except HTOA)

TOC of the extracted CD
Track | Start | Length | Start sector | End sector
———————————————————
1 | 00:00:00 | 04:17:68 | 0 | 19342
2 | 04:17:68 | 03:08:74 | 19343 | 33516
3 | 07:26:67 | 03:40:08 | 33517 | 50024
4 | 11:07:00 | 03:25:30 | 50025 | 65429
5 | 14:32:30 | 04:10:49 | 65430 | 84228
6 | 18:43:04 | 04:29:13 | 84229 | 104416
7 | 23:12:17 | 02:55:02 | 104417 | 117543
8 | 26:07:19 | 04:25:21 | 117544 | 137439
9 | 30:32:40 | 03:38:22 | 137440 | 153811
10 | 34:10:62 | 03:32:45 | 153812 | 169756
11 | 37:43:32 | 03:41:18 | 169757 | 186349
12 | 41:24:50 | 02:44:32 | 186350 | 198681

AccurateRip Summary
Disc not found in AccurateRip DB.

All Tracks
Album gain : -9.24 dB
Peak : 0.988647
Statistics
Read error : 0
Jitter error (maybe fixed) : 0
Retry sector count : 0
Damaged sector count : 0

Track 01
Filename : /private/tmp/Music/Russkaja – Peace, Love & Russian Roll (2015) [FLAC]/01 – Rock’n Roll Today.flac
Pre-gap length : 00:02:00

Track gain : -9.54 dB
Peak : 0.988586
CRC32 hash (test run) : CB3D1288
CRC32 hash : CB3D1288
CRC32 hash (skip zero) : 1926F003
AccurateRip v1 signature : 54CD0B10
AccurateRip v2 signature : E30689FC
->Track not present in AccurateRip database.
Statistics
Read error : 0
Jitter error (maybe fixed) : 0
Retry sector count : 0
Damaged sector count : 0

Track 02
Filename : /private/tmp/Music/Russkaja – Peace, Love & Russian Roll (2015) [FLAC]/02 – Slap Your Face.flac
Pre-gap length : 00:00:01

Track gain : -8.87 dB
Peak : 0.988525
CRC32 hash (test run) : 1076C4BA
CRC32 hash : 1076C4BA
CRC32 hash (skip zero) : 52CB524E
AccurateRip v1 signature : 11647E21
AccurateRip v2 signature : C87665C4
->Track not present in AccurateRip database.
Statistics
Read error : 0
Jitter error (maybe fixed) : 0
Retry sector count : 0
Damaged sector count : 0

Track 03
Filename : /private/tmp/Music/Russkaja – Peace, Love & Russian Roll (2015) [FLAC]/03 – Hometown Polka.flac
Pre-gap length : 00:01:38

Track gain : -9.66 dB
Peak : 0.988617
CRC32 hash (test run) : D60CF069
CRC32 hash : D60CF069
CRC32 hash (skip zero) : 51F0AE63
AccurateRip v1 signature : C3BA90B0
AccurateRip v2 signature : A273F76D
->Track not present in AccurateRip database.
Statistics
Read error : 0
Jitter error (maybe fixed) : 0
Retry sector count : 0
Damaged sector count : 0

Track 04
Filename : /private/tmp/Music/Russkaja – Peace, Love & Russian Roll (2015) [FLAC]/04 – There Was A Time.flac
Pre-gap length : 00:01:74

Track gain : -7.98 dB
Peak : 0.988556
CRC32 hash (test run) : 74964233
CRC32 hash : 74964233
CRC32 hash (skip zero) : 2562E621
AccurateRip v1 signature : 4C5F700F
AccurateRip v2 signature : 1FEF0E04
->Track not present in AccurateRip database.
Statistics
Read error : 0
Jitter error (maybe fixed) : 0
Retry sector count : 0
Damaged sector count : 0

Track 05
Filename : /private/tmp/Music/Russkaja – Peace, Love & Russian Roll (2015) [FLAC]/05 – El Pueblo Unido.flac
Pre-gap length : 00:01:28

Track gain : -9.50 dB
Peak : 0.988647
CRC32 hash (test run) : 2A5D97B3
CRC32 hash : 2A5D97B3
CRC32 hash (skip zero) : 062F3B9C
AccurateRip v1 signature : C9E2CADF
AccurateRip v2 signature : 266B57AC
->Track not present in AccurateRip database.
Statistics
Read error : 0
Jitter error (maybe fixed) : 0
Retry sector count : 0
Damaged sector count : 0

Track 06
Filename : /private/tmp/Music/Russkaja – Peace, Love & Russian Roll (2015) [FLAC]/06 – Lovegorod.flac
Pre-gap length : 00:01:45

Track gain : -8.82 dB
Peak : 0.988647
CRC32 hash (test run) : 9D0FCD22
CRC32 hash : 9D0FCD22
CRC32 hash (skip zero) : 2169CE38
AccurateRip v1 signature : D15BA6E9
AccurateRip v2 signature : FFB9A6B6
->Track not present in AccurateRip database.
Statistics
Read error : 0
Jitter error (maybe fixed) : 0
Retry sector count : 0
Damaged sector count : 0

Track 07
Filename : /private/tmp/Music/Russkaja – Peace, Love & Russian Roll (2015) [FLAC]/07 – Parachute.flac
Pre-gap length : 00:00:15

Track gain : -7.53 dB
Peak : 0.988617
CRC32 hash (test run) : 7FA0A832
CRC32 hash : 7FA0A832
CRC32 hash (skip zero) : 1A55EB63
AccurateRip v1 signature : E8C17D89
AccurateRip v2 signature : B494F033
->Track not present in AccurateRip database.
Statistics
Read error : 0
Jitter error (maybe fixed) : 0
Retry sector count : 0
Damaged sector count : 0

Track 08
Filename : /private/tmp/Music/Russkaja – Peace, Love & Russian Roll (2015) [FLAC]/08 – Let’s Die Together .flac
Pre-gap length : 00:00:31

Track gain : -9.49 dB
Peak : 0.988556
CRC32 hash (test run) : D432E321
CRC32 hash : D432E321
CRC32 hash (skip zero) : 1980F1A2
AccurateRip v1 signature : 61C6DEE9
AccurateRip v2 signature : 62A8F641
->Track not present in AccurateRip database.
Statistics
Read error : 0
Jitter error (maybe fixed) : 0
Retry sector count : 0
Damaged sector count : 0

Track 09
Filename : /private/tmp/Music/Russkaja – Peace, Love & Russian Roll (2015) [FLAC]/09 – Salty Rain.flac
Pre-gap length : 00:01:23

Track gain : -8.88 dB
Peak : 0.988586
CRC32 hash (test run) : A20617EB
CRC32 hash : A20617EB
CRC32 hash (skip zero) : B34AD661
AccurateRip v1 signature : 41AD6557
AccurateRip v2 signature : 26A2ABDB
->Track not present in AccurateRip database.
Statistics
Read error : 0
Jitter error (maybe fixed) : 0
Retry sector count : 0
Damaged sector count : 0

Track 10
Filename : /private/tmp/Music/Russkaja – Peace, Love & Russian Roll (2015) [FLAC]/10 – You Are The Revolution.flac
Pre-gap length : 00:01:28

Track gain : -9.74 dB
Peak : 0.988617
CRC32 hash (test run) : A3B0DBCD
CRC32 hash : A3B0DBCD
CRC32 hash (skip zero) : 0594282E
AccurateRip v1 signature : A65C255F
AccurateRip v2 signature : 8693F658
->Track not present in AccurateRip database.
Statistics
Read error : 0
Jitter error (maybe fixed) : 0
Retry sector count : 0
Damaged sector count : 0

Track 11
Filename : /private/tmp/Music/Russkaja – Peace, Love & Russian Roll (2015) [FLAC]/11 – Radio Song.flac
Pre-gap length : 00:01:11

Track gain : -6.99 dB
Peak : 0.988403
CRC32 hash (test run) : 3D63DD7E
CRC32 hash : 3D63DD7E
CRC32 hash (skip zero) : 5333D151
AccurateRip v1 signature : 3633E363
AccurateRip v2 signature : 7E9E39F8
->Track not present in AccurateRip database.
Statistics
Read error : 0
Jitter error (maybe fixed) : 0
Retry sector count : 0
Damaged sector count : 0

Track 12
Filename : /private/tmp/Music/Russkaja – Peace, Love & Russian Roll (2015) [FLAC]/12 – Peace, Love & Russian Roll.flac
Pre-gap length : 00:02:03

Track gain : -9.32 dB
Peak : 0.988586
CRC32 hash (test run) : A30FDDA6
CRC32 hash : A30FDDA6
CRC32 hash (skip zero) : 1C3A2FE5
AccurateRip v1 signature : 6D65822D
AccurateRip v2 signature : 9E55570A
->Track not present in AccurateRip database.
Statistics
Read error : 0
Jitter error (maybe fixed) : 0
Retry sector count : 0
Damaged sector count : 0

No errors occurred

End of status report

—–BEGIN XLD SIGNATURE—–
CJMuyets5LJDG9gZXkTC7UlNvXvffB5k14XomRdLU_ytbmEtSvZY3PFZSrKFXAn_B3kg4skArnyY76BEEfCQeBmJkhjo9XseAl1QSxa
—–END XLD SIGNATURE—–

TITLE “Peace, Love & Russian Roll ”
PERFORMER “Russkaja”
REM GENRE “Ska”
REM DATE “2015”
REM DISCID B50A590C
REM REPLAYGAIN_ALBUM_GAIN -9.24 dB
REM REPLAYGAIN_ALBUM_PEAK 0.988647
FILE “01 – Rock’n Roll Today.flac” WAVE
TRACK 01 AUDIO
TITLE “Rock’n Roll Today”
ISRC ATN261559701
REM REPLAYGAIN_TRACK_GAIN -9.54 dB
REM REPLAYGAIN_TRACK_PEAK 0.988586
INDEX 01 00:00:00
TRACK 02 AUDIO
TITLE “Slap Your Face”
ISRC ATN261559702
REM REPLAYGAIN_TRACK_GAIN -8.87 dB
REM REPLAYGAIN_TRACK_PEAK 0.988525
INDEX 00 04:17:67
FILE “02 – Slap Your Face.flac” WAVE
INDEX 01 00:00:00
TRACK 03 AUDIO
TITLE “Hometown Polka”
ISRC ATN261559703
REM REPLAYGAIN_TRACK_GAIN -9.66 dB
REM REPLAYGAIN_TRACK_PEAK 0.988617
INDEX 00 03:07:36
FILE “03 – Hometown Polka.flac” WAVE
INDEX 01 00:00:00
TRACK 04 AUDIO
TITLE “There Was A Time”
ISRC ATN261559704
REM REPLAYGAIN_TRACK_GAIN -7.98 dB
REM REPLAYGAIN_TRACK_PEAK 0.988556
INDEX 00 03:38:09
FILE “04 – There Was A Time.flac” WAVE
INDEX 01 00:00:00
TRACK 05 AUDIO
TITLE “El Pueblo Unido”
ISRC ATN261559705
REM REPLAYGAIN_TRACK_GAIN -9.50 dB
REM REPLAYGAIN_TRACK_PEAK 0.988647
INDEX 00 03:24:02
FILE “05 – El Pueblo Unido.flac” WAVE
INDEX 01 00:00:00
TRACK 06 AUDIO
TITLE “Lovegorod”
ISRC ATN261559706
REM REPLAYGAIN_TRACK_GAIN -8.82 dB
REM REPLAYGAIN_TRACK_PEAK 0.988647
INDEX 00 04:09:04
FILE “06 – Lovegorod.flac” WAVE
INDEX 01 00:00:00
TRACK 07 AUDIO
TITLE “Parachute”
ISRC ATN261559707
REM REPLAYGAIN_TRACK_GAIN -7.53 dB
REM REPLAYGAIN_TRACK_PEAK 0.988617
INDEX 00 04:28:73
FILE “07 – Parachute.flac” WAVE
INDEX 01 00:00:00
TRACK 08 AUDIO
TITLE “Let’s Die Together ”
ISRC ATN261559708
REM REPLAYGAIN_TRACK_GAIN -9.49 dB
REM REPLAYGAIN_TRACK_PEAK 0.988556
INDEX 00 02:54:46
FILE “08 – Let’s Die Together .flac” WAVE
INDEX 01 00:00:00
TRACK 09 AUDIO
TITLE “Salty Rain”
ISRC ATN261559709
REM REPLAYGAIN_TRACK_GAIN -8.88 dB
REM REPLAYGAIN_TRACK_PEAK 0.988586
INDEX 00 04:23:73
FILE “09 – Salty Rain.flac” WAVE
INDEX 01 00:00:00
TRACK 10 AUDIO
TITLE “You Are The Revolution”
ISRC ATN261559710
REM REPLAYGAIN_TRACK_GAIN -9.74 dB
REM REPLAYGAIN_TRACK_PEAK 0.988617
INDEX 00 03:36:69
FILE “10 – You Are The Revolution.flac” WAVE
INDEX 01 00:00:00
TRACK 11 AUDIO
TITLE “Radio Song”
ISRC ATN261559711
REM REPLAYGAIN_TRACK_GAIN -6.99 dB
REM REPLAYGAIN_TRACK_PEAK 0.988403
INDEX 00 03:31:34
FILE “11 – Radio Song.flac” WAVE
INDEX 01 00:00:00
TRACK 12 AUDIO
TITLE “Peace, Love & Russian Roll”
ISRC ATN261559712
REM REPLAYGAIN_TRACK_GAIN -9.32 dB
REM REPLAYGAIN_TRACK_PEAK 0.988586
INDEX 00 03:39:15
FILE “12 – Peace, Love & Russian Roll.flac” WAVE
INDEX 01 00:00:00


Leave a Reply

Your email address will not be published. Required fields are marked *

This site uses Akismet to reduce spam. Learn how your comment data is processed.