Rush – Test For Echo




No Cover available

Artist: Rush
Year: 1996
Genre: Rock
Notes: Discogs
Add. Notes:
Watch Songs on: YouTube
Cover incl.: Yes
Encoder: FLAC
Bitrate: ~1000 kBit/s (44.1 kHz/16 Bit/s)
Log & Cue incl.: Yes/Yes
Size: 400,7 MB
Password: “slam” (without ” “)


All Downloads/Hosters are compatible

Download 1
KatFile.com
Turbobit.net
Rapidgator.net
FileFactory.com
Download 2
KatFile.com
Turbobit.net
Rapidgator.net
FileFactory.com

Tracklist:

1 Test For Echo 5:55
2 Driven 4:28
3 Half The World 3:43
4 The Color Of Right 4:48
5 Time And Motion 5:02
6 Totem 4:58
7 Dog Years 4:55
8 Virtuality 5:44
9 Resist 4:23
10 Limbo 5:29
11 Carve Away The Stone 4:06

EAC-Log, CUE-Sheed & NFO:

Click to open spoiler
Отчёт EAC об извлечении, выполненном 24. декабря 2009, 0:47 для диска:
Rush / Test For Echo

Дисковод: Optiarc DVD RW AD-7170A Adapter: 2 ID: 0
Режим чтения: Достоверный (C2: нет, Точный поток: да, Отключение кэша: да)
Коррекция смещения при чтении: 48
Способность читать области Lead-in и Lead-out : Нет

Выходной формат: Внутренние WAV-операции
44.100 Гц; 16 бит; стерео

Другие параметры:
Заполнение пропущенных сэмплов тишиной : Да
Удаление блоков с тишиной в начале и конце : Нет
Встроенный Win32-интерфейс для Win NT/2000

Характеристики диапазона извлечения и сообщения об ошибках
Выбранный диапазон
Имя файла C:\Documents and Settings\Admin\Рабочий стол\релизы\RUSH. Test of Echo.1996\Rush – Test For Echo.wav

Пиковый уровень 99.9 %
Качество диапазона 99.9 %
CRC 780CCF84
Копирование… OK

Ошибок не произошло

Конец отчёта

————————————————————

Отчёт EAC об извлечении, выполненном 24. декабря 2009, 0:47 для диска:
Rush / Test For Echo

Дисковод: Optiarc DVD RW AD-7170A Adapter: 2 ID: 0
Режим чтения: Достоверный (C2: нет, Точный поток: да, Отключение кэша: да)
Коррекция смещения при чтении: 48
Способность читать области Lead-in и Lead-out : Нет

Выходной формат: Внутренние WAV-операции
44.100 Гц; 16 бит; стерео

Другие параметры:
Заполнение пропущенных сэмплов тишиной : Да
Удаление блоков с тишиной в начале и конце : Нет
Встроенный Win32-интерфейс для Win NT/2000

Характеристики диапазона извлечения и сообщения об ошибках
Выбранный диапазон
Имя файла C:\Documents and Settings\Admin\Рабочий стол\релизы\RUSH. Test of Echo.1996\Rush – Test For Echo.wav

Пиковый уровень 99.9 %
Качество диапазона 99.9 %
CRC 780CCF84
Копирование… OK

Ошибок не произошло

Конец отчёта

REM GENRE Rock
REM DATE 1996
REM DISCID A40C8B0B
REM COMMENT “ExactAudioCopy v0.95b4”
PERFORMER “Rush”
TITLE “Test For Echo”
FILE “Rush – Test For Echo.flac” WAVE
TRACK 01 AUDIO
TITLE “Test For Echo”
PERFORMER “Rush”
INDEX 00 00:00:00
INDEX 01 00:00:32
TRACK 02 AUDIO
TITLE “Driven”
PERFORMER “Rush”
INDEX 00 05:55:54
INDEX 01 05:56:17
TRACK 03 AUDIO
TITLE “Half The World”
PERFORMER “Rush”
INDEX 00 10:23:07
INDEX 01 10:23:40
TRACK 04 AUDIO
TITLE “The Color Of Right”
PERFORMER “Rush”
INDEX 00 14:06:29
INDEX 01 14:06:30
TRACK 05 AUDIO
TITLE “Time And Motion”
PERFORMER “Rush”
INDEX 00 18:54:74
INDEX 01 18:55:00
TRACK 06 AUDIO
TITLE “Totem”
PERFORMER “Rush”
INDEX 00 23:56:29
INDEX 01 23:56:30
TRACK 07 AUDIO
TITLE “Dog Years”
PERFORMER “Rush”
INDEX 00 28:54:24
INDEX 01 28:54:60
TRACK 08 AUDIO
TITLE “Virtuality”
PERFORMER “Rush”
INDEX 00 33:49:69
INDEX 01 33:49:70
TRACK 09 AUDIO
TITLE “Resist”
PERFORMER “Rush”
INDEX 00 39:33:34
INDEX 01 39:33:50
TRACK 10 AUDIO
TITLE “Limbo”
PERFORMER “Rush”
INDEX 00 43:57:09
INDEX 01 43:57:10
TRACK 11 AUDIO
TITLE “Carve Away The Stone”
PERFORMER “Rush”
INDEX 00 49:26:04
INDEX 01 49:26:05


Leave a Reply

Your email address will not be published. Required fields are marked *

Enter the text from the image below
 

This site uses Akismet to reduce spam. Learn how your comment data is processed.