Rush – Roll The Bones (Japanese Edition)




No Cover available

Artist: Rush
Year: 1991
Genre: Rock
Notes: Discogs
Add. Notes: Japanese Edition
Watch Songs on: YouTube
Cover incl.: Yes
Encoder: FLAC
Bitrate: ~900 kBit/s (44.1 kHz/16 Bit/s)
Log & Cue incl.: Yes/Yes
Size: 336,5 MB
Password: “slam” (without ” “)


All Downloads/Hosters are compatible

Download 1
KatFile.com
Turbobit.net
FileFactory.com
Rapidgator.net
Download 2
KatFile.com
Turbobit.net
FileFactory.com
Rapidgator.net

Tracklist:

1 Dreamline 4:36
2 Bravado 4:35
3 Roll The Bones 5:30
4 Face Up 3:54
5 Where's My Thing? (Part IV, "Gangster Of Boats" 
Trilogy) 3:49
6 The Big Wheel 5:13
7 Heresy 5:26
8 Ghost Of A Chance 5:19
9 Neurotica 4:40
10 You Bet Your Life 5:00

EAC-Log, CUE-Sheed & NFO:

Click to open spoiler
Exact Audio Copy V0.99 prebeta 4 from 23. January 2008

EAC extraction logfile from 19. August 2010, 18:44

Rush / Roll The Bones [Japan AMCY-286]

Used drive : BENQ CDRW 5232X Adapter: 1 ID: 0

Read mode : Secure
Utilize accurate stream : Yes
Defeat audio cache : Yes
Make use of C2 pointers : No

Read offset correction : 738
Overread into Lead-In and Lead-Out : No
Fill up missing offset samples with silence : Yes
Delete leading and trailing silent blocks : No
Null samples used in CRC calculations : Yes
Used interface : Installed external ASPI interface
Gap handling : Appended to previous track

Used output format : Internal WAV Routines
Sample format : 44.100 Hz; 16 Bit; Stereo

TOC of the extracted CD

Track | Start | Length | Start sector | End sector
———————————————————
1 | 0:00.00 | 4:37.72 | 0 | 20846
2 | 4:37.72 | 4:35.63 | 20847 | 41534
3 | 9:13.60 | 5:30.17 | 41535 | 66301
4 | 14:44.02 | 3:54.00 | 66302 | 83851
5 | 18:38.02 | 3:49.35 | 83852 | 101061
6 | 22:27.37 | 5:12.55 | 101062 | 124516
7 | 27:40.17 | 5:25.63 | 124517 | 148954
8 | 33:06.05 | 5:18.72 | 148955 | 172876
9 | 38:25.02 | 4:40.00 | 172877 | 193876
10 | 43:05.02 | 5:00.13 | 193877 | 216389

Track 1

Filename C:\01 – Dreamline.wav

Pre-gap length 0:00:02.00

Peak level 100.0 %
Track quality 99.9 %
Test CRC A8E6C746
Copy CRC A8E6C746
Accurately ripped (confidence 2) [A6ACF462]
Copy OK

Track 2

Filename C:\02 – Bravado.wav

Peak level 97.3 %
Track quality 100.0 %
Test CRC D475D9CE
Copy CRC D475D9CE
Track not present in AccurateRip database
Copy OK

Track 3

Filename C:\03 – Roll The Bones.wav

Peak level 97.3 %
Track quality 100.0 %
Test CRC 6684E21A
Copy CRC 6684E21A
Accurately ripped (confidence 2) [0B17414A]
Copy OK

Track 4

Filename C:\04 – Face Up.wav

Peak level 97.3 %
Track quality 100.0 %
Test CRC 2F486384
Copy CRC 2F486384
Accurately ripped (confidence 2) [27035911]
Copy OK

Track 5

Filename C:\05 – Where’s My Thing-.wav

Peak level 97.3 %
Track quality 99.9 %
Test CRC 2F1605FC
Copy CRC 2F1605FC
Accurately ripped (confidence 2) [7BCE952B]
Copy OK

Track 6

Filename C:\06 – The Big Wheel.wav

Peak level 97.3 %
Track quality 100.0 %
Test CRC 8C802B1B
Copy CRC 8C802B1B
Accurately ripped (confidence 2) [5826B5F5]
Copy OK

Track 7

Filename C:\07 – Heresy.wav

Peak level 97.3 %
Track quality 100.0 %
Test CRC F42D4860
Copy CRC F42D4860
Accurately ripped (confidence 2) [8E740276]
Copy OK

Track 8

Filename C:\08 – Ghost Of A Chance.wav

Peak level 97.3 %
Track quality 100.0 %
Test CRC 6EEE35B9
Copy CRC 6EEE35B9
Accurately ripped (confidence 2) [CBCEA6D6]
Copy OK

Track 9

Filename C:\09 – Neurotica.wav

Peak level 97.3 %
Track quality 100.0 %
Test CRC 6140B523
Copy CRC 6140B523
Accurately ripped (confidence 2) [DA6F998E]
Copy OK

Track 10

Filename C:\10 – You Bet Your Life.wav

Peak level 97.3 %
Track quality 100.0 %
Test CRC 7BEC85E9
Copy CRC 7BEC85E9
Accurately ripped (confidence 2) [7B95D105]
Copy OK

9 track(s) accurately ripped
1 track(s) not present in the AccurateRip database

Some tracks could not be verified as accurate

No errors occurred

End of status report

REM GENRE Rock
REM DATE 1991
REM DISCID 990B450A
REM COMMENT “ExactAudioCopy v0.99pb4”
PERFORMER “Rush”
TITLE “Roll The Bones [Japan AMCY-286]”
FILE “01 – Dreamline.wav” WAVE
TRACK 01 AUDIO
TITLE “Dreamline”
PERFORMER “Rush”
INDEX 01 00:00:00
FILE “02 – Bravado.wav” WAVE
TRACK 02 AUDIO
TITLE “Bravado”
PERFORMER “Rush”
INDEX 01 00:00:00
FILE “03 – Roll The Bones.wav” WAVE
TRACK 03 AUDIO
TITLE “Roll The Bones”
PERFORMER “Rush”
INDEX 01 00:00:00
FILE “04 – Face Up.wav” WAVE
TRACK 04 AUDIO
TITLE “Face Up”
PERFORMER “Rush”
INDEX 01 00:00:00
FILE “05 – Where’s My Thing-.wav” WAVE
TRACK 05 AUDIO
TITLE “Where’s My Thing?”
PERFORMER “Rush”
INDEX 01 00:00:00
FILE “06 – The Big Wheel.wav” WAVE
TRACK 06 AUDIO
TITLE “The Big Wheel”
PERFORMER “Rush”
INDEX 01 00:00:00
FILE “07 – Heresy.wav” WAVE
TRACK 07 AUDIO
TITLE “Heresy”
PERFORMER “Rush”
INDEX 01 00:00:00
FILE “08 – Ghost Of A Chance.wav” WAVE
TRACK 08 AUDIO
TITLE “Ghost Of A Chance”
PERFORMER “Rush”
INDEX 01 00:00:00
FILE “09 – Neurotica.wav” WAVE
TRACK 09 AUDIO
TITLE “Neurotica”
PERFORMER “Rush”
INDEX 01 00:00:00
FILE “10 – You Bet Your Life.wav” WAVE
TRACK 10 AUDIO
TITLE “You Bet Your Life”
PERFORMER “Rush”
INDEX 01 00:00:00


Leave a Reply

Your email address will not be published. Required fields are marked *

Enter the text from the image below
 

This site uses Akismet to reduce spam. Learn how your comment data is processed.