Rush – Presto (Japanese Edition)




No Cover available


Artist: Rush
Year: 1989
Genre: Rock
Notes: Discogs
Add. Notes: Japanese Edition
Watch Songs on: YouTube
Cover incl.: Yes
Encoder: FLAC
Bitrate: ~900 kBit/s (44.1 kHz/16 Bit/s)
Log & Cue incl.: Yes/Yes
Size: 350,8 MB
Password: “slam” (without ” “)


All Downloads/Hosters are compatible

Download 1
KatFile.com
Turbobit.net
Rapidgator.net
FileFactory.com
Download 2
KatFile.com
Turbobit.net
Rapidgator.net
FileFactory.com

Tracklist:

1 Show Don't Tell 5:01
2 Chain Lightning 4:33
3 The Pass 4:51
4 War Paint 5:24
5 Scars 4:07
6 Presto 5:45
7 Superconductor 4:47
8 Anagram (For Mongo) 4:00
9 Red Tide 4:29
10 Hand Over Fist 4:11
11 Available Light 5:03

EAC-Log, CUE-Sheed & NFO:

Click to open spoiler
Exact Audio Copy V0.99 prebeta 4 from 23. January 2008

EAC extraction logfile from 19. August 2010, 18:05

Rush / Presto [Japan AMCY-4]

Used drive : BENQ CDRW 5232X Adapter: 1 ID: 0

Read mode : Secure
Utilize accurate stream : Yes
Defeat audio cache : Yes
Make use of C2 pointers : No

Read offset correction : 738
Overread into Lead-In and Lead-Out : No
Fill up missing offset samples with silence : Yes
Delete leading and trailing silent blocks : No
Null samples used in CRC calculations : Yes
Used interface : Installed external ASPI interface
Gap handling : Appended to previous track

Used output format : Internal WAV Routines
Sample format : 44.100 Hz; 16 Bit; Stereo

TOC of the extracted CD

Track | Start | Length | Start sector | End sector
———————————————————
1 | 0:00.00 | 5:01.30 | 0 | 22604
2 | 5:01.30 | 4:33.07 | 22605 | 43086
3 | 9:34.37 | 4:50.55 | 43087 | 64891
4 | 14:25.17 | 5:24.38 | 64892 | 89229
5 | 19:49.55 | 4:07.25 | 89230 | 107779
6 | 23:57.05 | 5:46.05 | 107780 | 133734
7 | 29:43.10 | 4:47.30 | 133735 | 155289
8 | 34:30.40 | 3:59.40 | 155290 | 173254
9 | 38:30.05 | 4:30.37 | 173255 | 193541
10 | 43:00.42 | 4:10.63 | 193542 | 212354
11 | 47:11.30 | 5:02.65 | 212355 | 235069

Track 1

Filename C:\01 – Show Don’t Tell.wav

Pre-gap length 0:00:02.00

Peak level 89.7 %
Track quality 100.0 %
Test CRC C363AC78
Copy CRC C363AC78
Track not present in AccurateRip database
Copy OK

Track 2

Filename C:\02 – Chain Lightning.wav

Peak level 97.9 %
Track quality 100.0 %
Test CRC EE1C79EE
Copy CRC EE1C79EE
Track not present in AccurateRip database
Copy OK

Track 3

Filename C:\03 – The Pass.wav

Peak level 89.7 %
Track quality 100.0 %
Test CRC C87B9595
Copy CRC C87B9595
Track not present in AccurateRip database
Copy OK

Track 4

Filename C:\04 – War Paint.wav

Peak level 100.0 %
Track quality 100.0 %
Test CRC 1FB7A0D9
Copy CRC 1FB7A0D9
Track not present in AccurateRip database
Copy OK

Track 5

Filename C:\05 – Scars.wav

Peak level 90.3 %
Track quality 100.0 %
Test CRC 65A14A0B
Copy CRC 65A14A0B
Track not present in AccurateRip database
Copy OK

Track 6

Filename C:\06 – Presto.wav

Peak level 99.9 %
Track quality 100.0 %
Test CRC 9F9475D2
Copy CRC 9F9475D2
Track not present in AccurateRip database
Copy OK

Track 7

Filename C:\07 – Superconductor.wav

Peak level 100.0 %
Track quality 100.0 %
Test CRC 5C46FEFA
Copy CRC 5C46FEFA
Track not present in AccurateRip database
Copy OK

Track 8

Filename C:\08 – Anagram (For Mongo).wav

Peak level 100.0 %
Track quality 100.0 %
Test CRC 8F210BFE
Copy CRC 8F210BFE
Track not present in AccurateRip database
Copy OK

Track 9

Filename C:\09 – Red Tide.wav

Peak level 99.8 %
Track quality 100.0 %
Test CRC 72E15DD9
Copy CRC 72E15DD9
Track not present in AccurateRip database
Copy OK

Track 10

Filename C:\10 – Hand Over Fist.wav

Peak level 100.0 %
Track quality 100.0 %
Test CRC 443B28D8
Copy CRC 443B28D8
Track not present in AccurateRip database
Copy OK

Track 11

Filename C:\11 – Available Light.wav

Peak level 100.0 %
Track quality 99.9 %
Test CRC 1C52C6B5
Copy CRC 1C52C6B5
Track not present in AccurateRip database
Copy OK

None of the tracks are present in the AccurateRip database

No errors occurred

End of status report
#
REM GENRE Rock
REM DATE 1989
REM DISCID 950C3E0B
REM COMMENT “ExactAudioCopy v0.99pb4”
PERFORMER “Rush”
TITLE “Presto [Japan AMCY-4]”
FILE “01 – Show Don’t Tell.wav” WAVE
TRACK 01 AUDIO
TITLE “Show Don’t Tell”
PERFORMER “Rush”
INDEX 01 00:00:00
FILE “02 – Chain Lightning.wav” WAVE
TRACK 02 AUDIO
TITLE “Chain Lightning”
PERFORMER “Rush”
INDEX 01 00:00:00
FILE “03 – The Pass.wav” WAVE
TRACK 03 AUDIO
TITLE “The Pass”
PERFORMER “Rush”
INDEX 01 00:00:00
FILE “04 – War Paint.wav” WAVE
TRACK 04 AUDIO
TITLE “War Paint”
PERFORMER “Rush”
INDEX 01 00:00:00
FILE “05 – Scars.wav” WAVE
TRACK 05 AUDIO
TITLE “Scars”
PERFORMER “Rush”
INDEX 01 00:00:00
FILE “06 – Presto.wav” WAVE
TRACK 06 AUDIO
TITLE “Presto”
PERFORMER “Rush”
INDEX 01 00:00:00
FILE “07 – Superconductor.wav” WAVE
TRACK 07 AUDIO
TITLE “Superconductor”
PERFORMER “Rush”
INDEX 01 00:00:00
FILE “08 – Anagram (For Mongo).wav” WAVE
TRACK 08 AUDIO
TITLE “Anagram (For Mongo)”
PERFORMER “Rush”
INDEX 01 00:00:00
FILE “09 – Red Tide.wav” WAVE
TRACK 09 AUDIO
TITLE “Red Tide”
PERFORMER “Rush”
INDEX 01 00:00:00
FILE “10 – Hand Over Fist.wav” WAVE
TRACK 10 AUDIO
TITLE “Hand Over Fist”
PERFORMER “Rush”
INDEX 01 00:00:00
FILE “11 – Available Light.wav” WAVE
TRACK 11 AUDIO
TITLE “Available Light”
PERFORMER “Rush”
INDEX 01 00:00:00


0

Publication author

offline 7 days

Chaos

3
Comments: 4Publics: 3565Registration: 02-02-2019
Spread the Download

Leave a Reply

Your email address will not be published. Required fields are marked *

Enter the text from the image below
 

This site uses Akismet to reduce spam. Learn how your comment data is processed.