Rush – Permanent Waves (Japanese Edition)




No Cover available

Artist: Rush
Year: 1980/1991
Genre: Rock
Notes: Discogs
Add. Notes: Japanese Edition
Watch Songs on: YouTube
Cover incl.: Yes
Encoder: FLAC
Bitrate: ~800 kBit/s (44.1 kHz/16 Bit/s)
Log & Cue incl.: Yes/Yes
Password: “slam” (without ” “)


All Downloads/Hosters are compatible

Download 1
KatFile.com
Turbobit.net
Rapidgator.net
FileFactory.com
Download 2
KatFile.com
Turbobit.net
Rapidgator.net
FileFactory.com

Tracklist:

1 The Spirit Of Radio 
2 Freewill 
3 Jacob's Ladder 
4 Entre Nouse 
5 Different Strings 
6 Natural Science 
6-1 Tide Pools 
6-2 Hyperspace 
6-3 Permanent Waves

EAC-Log, CUE-Sheed & NFO:

Click to open spoiler
Exact Audio Copy V0.99 prebeta 4 from 23. January 2008

EAC extraction logfile from 19. August 2010, 15:46

Rush / Permanent Waves [Japan AMCY-288]

Used drive : BENQ CDRW 5232X Adapter: 1 ID: 0

Read mode : Secure
Utilize accurate stream : Yes
Defeat audio cache : Yes
Make use of C2 pointers : No

Read offset correction : 738
Overread into Lead-In and Lead-Out : No
Fill up missing offset samples with silence : Yes
Delete leading and trailing silent blocks : No
Null samples used in CRC calculations : Yes
Used interface : Installed external ASPI interface
Gap handling : Appended to previous track

Used output format : Internal WAV Routines
Sample format : 44.100 Hz; 16 Bit; Stereo

TOC of the extracted CD

Track | Start | Length | Start sector | End sector
———————————————————
1 | 0:00.00 | 4:59.00 | 0 | 22424
2 | 4:59.00 | 5:23.57 | 22425 | 46706
3 | 10:22.57 | 7:30.55 | 46707 | 80511
4 | 17:53.37 | 4:37.40 | 80512 | 101326
5 | 22:31.02 | 3:50.60 | 101327 | 118636
6 | 26:21.62 | 9:18.40 | 118637 | 160526

Track 1

Filename C:\01 – The Spirit Of Radio.wav

Pre-gap length 0:00:02.00

Peak level 93.1 %
Track quality 100.0 %
Test CRC 77E7E697
Copy CRC 77E7E697
Track not present in AccurateRip database
Copy OK

Track 2

Filename C:\02 – Freewill.wav

Pre-gap length 0:00:01.50

Peak level 98.9 %
Track quality 99.9 %
Test CRC 601C82F0
Copy CRC 601C82F0
Track not present in AccurateRip database
Copy OK

Track 3

Filename C:\03 – Jacob’s Ladder.wav

Peak level 95.6 %
Track quality 100.0 %
Test CRC FE7D56DF
Copy CRC FE7D56DF
Track not present in AccurateRip database
Copy OK

Track 4

Filename C:\04 – Entre Nous.wav

Pre-gap length 0:00:01.73

Peak level 87.0 %
Track quality 100.0 %
Test CRC 09551F10
Copy CRC 09551F10
Track not present in AccurateRip database
Copy OK

Track 5

Filename C:\05 – Different Strings.wav

Peak level 87.3 %
Track quality 100.0 %
Test CRC A06FD975
Copy CRC A06FD975
Track not present in AccurateRip database
Copy OK

Track 6

Filename C:\06 – Natural Science.wav

Peak level 100.0 %
Track quality 99.9 %
Test CRC 2A09D67A
Copy CRC 2A09D67A
Track not present in AccurateRip database
Copy OK

None of the tracks are present in the AccurateRip database

No errors occurred

End of status report

REM GENRE “Progressive Rock”
REM DATE 1980
REM DISCID 3C085C06
REM COMMENT “ExactAudioCopy v0.99pb4”
PERFORMER “Rush”
TITLE “Permanent Waves [Japan AMCY-288]”
FILE “01 – The Spirit Of Radio.wav” WAVE
TRACK 01 AUDIO
TITLE “The Spirit Of Radio”
PERFORMER “Rush”
INDEX 01 00:00:00
TRACK 02 AUDIO
TITLE “Freewill”
PERFORMER “Rush”
INDEX 00 04:57:37
FILE “02 – Freewill.wav” WAVE
INDEX 01 00:00:00
FILE “03 – Jacob’s Ladder.wav” WAVE
TRACK 03 AUDIO
TITLE “Jacob’s Ladder”
PERFORMER “Rush”
INDEX 01 00:00:00
TRACK 04 AUDIO
TITLE “Entre Nous”
PERFORMER “Rush”
INDEX 00 07:29:00
FILE “04 – Entre Nous.wav” WAVE
INDEX 01 00:00:00
FILE “05 – Different Strings.wav” WAVE
TRACK 05 AUDIO
TITLE “Different Strings”
PERFORMER “Rush”
INDEX 01 00:00:00
FILE “06 – Natural Science.wav” WAVE
TRACK 06 AUDIO
TITLE “Natural Science”
PERFORMER “Rush”
INDEX 01 00:00:00


Leave a Reply

Your email address will not be published. Required fields are marked *

Enter the text from the image below
 

This site uses Akismet to reduce spam. Learn how your comment data is processed.