Rush – Moving Pictures (Remastered)




Artist: Rush
Year: 2011
Genre: Rock
Notes: Discogs
Add. Notes: Remastered
Cover incl.: Yes
Encoder: FLAC
Bitrate: ~900 kBit/s (44.1 kHz/16 Bit/s)
Log & Cue incl.: Yes
Size: 274,41 MB
Password: “slam” (without ” “)


All Downloads/Hosters are compatible

Download 1
Turbobit.net
KatFile.com
Rapidgator.net
ddl.to
Download 2
Turbobit.net
KatFile.com
Rapidgator.net
ddl.to

Tracklist:

1 - Tom Sawyer - 4:36
2 - Red Barchetta - 6:10
3 - YYZ - 4:25
4 - Limelight - 4:19
5 - The Camera Eye - 10:58
6 - Witch Hunt - 4:45
7 - Vital Signs - 4:46

EAC-Log, CUE-Sheed & NFO:

Click to open spoiler
Exact Audio Copy V0.99 prebeta 5 from 4. May 2009

EAC extraction logfile from 20. April 2011, 2:12

Rush / Moving Pictures

Used drive : Optiarc DVD RW AD-7200A Adapter: 2 ID: 1

Read mode : Secure
Utilize accurate stream : Yes
Defeat audio cache : Yes
Make use of C2 pointers : No

Read offset correction : 48
Overread into Lead-In and Lead-Out : No
Fill up missing offset samples with silence : Yes
Delete leading and trailing silent blocks : No
Null samples used in CRC calculations : Yes
Used interface : Installed external ASPI interface

Used output format : Internal WAV Routines
Sample format : 44.100 Hz; 16 Bit; Stereo

TOC of the extracted CD

Track | Start | Length | Start sector | End sector
———————————————————
1 | 0:00.00 | 4:36.66 | 0 | 20765
2 | 4:36.66 | 6:10.32 | 20766 | 48547
3 | 10:47.23 | 4:25.63 | 48548 | 68485
4 | 15:13.11 | 4:19.63 | 68486 | 87973
5 | 19:32.74 | 10:58.74 | 87974 | 137397
6 | 30:31.73 | 4:45.40 | 137398 | 158812
7 | 35:17.38 | 4:46.17 | 158813 | 180279

Range status and errors

Selected range

Filename C:\Music\Rush – Moving Pictures (1981) (2011 Remaster)\Rush – Moving Pictures.wav

Peak level 99.4 %
Range quality 100.0 %
Copy CRC 065D31BE
Copy OK

No errors occurred

AccurateRip summary

Track 1 not present in database
Track 2 not present in database
Track 3 not present in database
Track 4 not present in database
Track 5 not present in database
Track 6 not present in database
Track 7 not present in database

None of the tracks are present in the AccurateRip database

End of status report

REM GENRE “Progressive Rock”
REM DATE 2011
REM DISCID 5E096307
REM COMMENT “ExactAudioCopy v0.99pb5”
PERFORMER “Rush”
TITLE “Moving Pictures”
FILE “Rush – Moving Pictures.wav” WAVE
TRACK 01 AUDIO
TITLE “Tom Sawyer”
PERFORMER “Rush”
INDEX 01 00:00:00
TRACK 02 AUDIO
TITLE “Red Barchetta”
PERFORMER “Rush”
INDEX 01 04:36:66
TRACK 03 AUDIO
TITLE “YYZ”
PERFORMER “Rush”
INDEX 01 10:47:23
TRACK 04 AUDIO
TITLE “Limelight”
PERFORMER “Rush”
INDEX 01 15:13:11
TRACK 05 AUDIO
TITLE “The Camera Eye”
PERFORMER “Rush”
INDEX 01 19:32:74
TRACK 06 AUDIO
TITLE “Witch Hunt”
PERFORMER “Rush”
INDEX 01 30:31:73
TRACK 07 AUDIO
TITLE “Vital Signs”
PERFORMER “Rush”
INDEX 01 35:17:38


Leave a Reply

Your email address will not be published. Required fields are marked *

Enter the text from the image below
 

This site uses Akismet to reduce spam. Learn how your comment data is processed.