Rush – Moving Pictures (Japanese Edition)




No Cover available

Artist: Rush
Year: 1981/1991
Genre: Rock
Notes: Discogs
Add. Notes: Japanese Edition
Watch Songs on: YouTube
Cover incl.: Yes
Encoder: FLAC
Bitrate: ~900 kBit/s (44.1 kHz/16 Bit/s)
Log & Cue incl.: Yes/Yes
Size: 258,8 MB
Password: “slam” (without ” “)


All Downloads/Hosters are compatible

Download 1
KatFile.com
Turbobit.net
FileFactory.com
Rapidgator.net
Download 2
KatFile.com
Turbobit.net
FileFactory.com
Rapidgator.net

Tracklist:

1 Tom Sawyer 4:33
2 Red Barchetta 6:09
3 YYZ 4:25
4 Limelight 4:19
5 The Camera Eye 10:59
6 Witch Hunt (Part III Of 'Fear') 4:44
7 Vital Signs 4:46

EAC-Log, CUE-Sheed & NFO:

Click to open spoiler
Exact Audio Copy V0.99 prebeta 4 from 23. January 2008

EAC extraction logfile from 19. August 2010, 16:10

Rush / Moving Pictures [Japan AMCY-289]

Used drive : BENQ CDRW 5232X Adapter: 1 ID: 0

Read mode : Secure
Utilize accurate stream : Yes
Defeat audio cache : Yes
Make use of C2 pointers : No

Read offset correction : 738
Overread into Lead-In and Lead-Out : No
Fill up missing offset samples with silence : Yes
Delete leading and trailing silent blocks : No
Null samples used in CRC calculations : Yes
Used interface : Installed external ASPI interface
Gap handling : Appended to previous track

Used output format : Internal WAV Routines
Sample format : 44.100 Hz; 16 Bit; Stereo

TOC of the extracted CD

Track | Start | Length | Start sector | End sector
———————————————————
1 | 0:00.00 | 4:37.10 | 0 | 20784
2 | 4:37.10 | 6:12.70 | 20785 | 48754
3 | 10:50.05 | 4:26.42 | 48755 | 68746
4 | 15:16.47 | 4:22.65 | 68747 | 88461
5 | 19:39.37 | 11:01.30 | 88462 | 138066
6 | 30:40.67 | 4:46.45 | 138067 | 159561
7 | 35:27.37 | 4:49.00 | 159562 | 181236

Track 1

Filename C:\01 – Tom Sawyer.wav

Pre-gap length 0:00:02.00

Peak level 99.0 %
Track quality 100.0 %
Test CRC EED8AE53
Copy CRC EED8AE53
Accurately ripped (confidence 1) [756292FA]
Copy OK

Track 2

Filename C:\02 – Red Barchetta.wav

Pre-gap length 0:00:01.00

Peak level 99.0 %
Track quality 100.0 %
Test CRC 2A45043B
Copy CRC 2A45043B
Accurately ripped (confidence 1) [F1657EC2]
Copy OK

Track 3

Filename C:\03 – YYZ.wav

Pre-gap length 0:00:01.26

Peak level 99.0 %
Track quality 100.0 %
Test CRC 8ED7D36B
Copy CRC 8ED7D36B
Accurately ripped (confidence 1) [F48B5BF6]
Copy OK

Track 4

Filename C:\04 – Limelight.wav

Peak level 99.0 %
Track quality 100.0 %
Test CRC 5AE9874C
Copy CRC 5AE9874C
Accurately ripped (confidence 1) [C7E7AA0C]
Copy OK

Track 5

Filename C:\05 – The Camera Eye.wav

Pre-gap length 0:00:01.26

Peak level 99.0 %
Track quality 100.0 %
Test CRC 0499CFAA
Copy CRC 0499CFAA
Accurately ripped (confidence 1) [31A636F5]
Copy OK

Track 6

Filename C:\06 – Witch Hunt.wav

Pre-gap length 0:00:01.00

Peak level 99.0 %
Track quality 100.0 %
Test CRC 8A5B10C2
Copy CRC 8A5B10C2
Accurately ripped (confidence 1) [913954B8]
Copy OK

Track 7

Filename C:\07 – Vital Signs.wav

Peak level 99.0 %
Track quality 100.0 %
Test CRC 00CD4D8D
Copy CRC 00CD4D8D
Accurately ripped (confidence 1) [FEBC478D]
Copy OK

All tracks accurately ripped

No errors occurred

End of status report

REM GENRE “Progressive Rock”
REM DATE 1981
REM DISCID 5B097007
REM COMMENT “ExactAudioCopy v0.99pb4”
PERFORMER “Rush”
TITLE “Moving Pictures [Japan AMCY-289]”
FILE “01 – Tom Sawyer.wav” WAVE
TRACK 01 AUDIO
TITLE “Tom Sawyer”
PERFORMER “Rush”
INDEX 01 00:00:00
TRACK 02 AUDIO
TITLE “Red Barchetta”
PERFORMER “Rush”
INDEX 00 04:36:10
FILE “02 – Red Barchetta.wav” WAVE
INDEX 01 00:00:00
TRACK 03 AUDIO
TITLE “YYZ”
PERFORMER “Rush”
INDEX 00 06:11:50
FILE “03 – YYZ.wav” WAVE
INDEX 01 00:00:00
FILE “04 – Limelight.wav” WAVE
TRACK 04 AUDIO
TITLE “Limelight”
PERFORMER “Rush”
INDEX 01 00:00:00
TRACK 05 AUDIO
TITLE “The Camera Eye”
PERFORMER “Rush”
INDEX 00 04:21:45
FILE “05 – The Camera Eye.wav” WAVE
INDEX 01 00:00:00
TRACK 06 AUDIO
TITLE “Witch Hunt”
PERFORMER “Rush”
INDEX 00 11:00:30
FILE “06 – Witch Hunt.wav” WAVE
INDEX 01 00:00:00
FILE “07 – Vital Signs.wav” WAVE
TRACK 07 AUDIO
TITLE “Vital Signs”
PERFORMER “Rush”
INDEX 01 00:00:00


Leave a Reply

Your email address will not be published. Required fields are marked *

Enter the text from the image below
 

This site uses Akismet to reduce spam. Learn how your comment data is processed.