Rush – Hold Your Fire (Japanese Edition)




No Cover available

Artist: Rush
Year: 1987/1991
Genre: Rock
Notes: Discogs
Add. Notes: Japanese Edition
Watch Songs on: YouTube
Cover incl.: Yes
Encoder: FLAC
Bitrate: ~800 kBit/s (44.1 kHz/16 Bit/s)
Log & Cue incl.: Yes/Yes
Size: 321,6 MB
Password: “slam” (without ” “)


All Downloads/Hosters are compatible

Download 1
KatFile.com
Turbobit.net
Rapidgator.net
FileFactory.com
Download 2
KatFile.com
Turbobit.net
Rapidgator.net
FileFactory.com

Tracklist:

1 Force Ten 4:28
2 Time Stand Still 5:07
3 Open Secrets 5:37
4 Second Nature 4:35
5 Prime Mover 5:19
6 Lock And Key 5:08
7 Mission 5:15
8 Turn The Page 4:53
9 Tai Shan 4:14
10 High Water 5:32

EAC-Log, CUE-Sheed & NFO:

Click to open spoiler
Exact Audio Copy V0.99 prebeta 4 from 23. January 2008

EAC extraction logfile from 19. August 2010, 17:39

Rush / Hold Your Fire [Japan AMCY-294]

Used drive : BENQ CDRW 5232X Adapter: 1 ID: 0

Read mode : Secure
Utilize accurate stream : Yes
Defeat audio cache : Yes
Make use of C2 pointers : No

Read offset correction : 738
Overread into Lead-In and Lead-Out : No
Fill up missing offset samples with silence : Yes
Delete leading and trailing silent blocks : No
Null samples used in CRC calculations : Yes
Used interface : Installed external ASPI interface
Gap handling : Appended to previous track

Used output format : Internal WAV Routines
Sample format : 44.100 Hz; 16 Bit; Stereo

TOC of the extracted CD

Track | Start | Length | Start sector | End sector
———————————————————
1 | 0:00.00 | 4:33.22 | 0 | 20496
2 | 4:33.22 | 5:08.65 | 20497 | 43661
3 | 9:42.12 | 5:38.30 | 43662 | 69041
4 | 15:20.42 | 4:36.28 | 69042 | 89769
5 | 19:56.70 | 5:21.05 | 89770 | 113849
6 | 25:18.00 | 5:09.50 | 113850 | 137074
7 | 30:27.50 | 5:17.42 | 137075 | 160891
8 | 35:45.17 | 4:55.20 | 160892 | 183036
9 | 40:40.37 | 4:16.65 | 183037 | 202301
10 | 44:57.27 | 5:34.48 | 202302 | 227399

Track 1

Filename C:\01 – Force Ten.wav

Pre-gap length 0:00:02.00

Peak level 99.9 %
Track quality 99.9 %
Test CRC F285765B
Copy CRC F285765B
Track not present in AccurateRip database
Copy OK

Track 2

Filename C:\02 – Time Stand Still.wav

Peak level 100.0 %
Track quality 100.0 %
Test CRC BCA08DEB
Copy CRC BCA08DEB
Track not present in AccurateRip database
Copy OK

Track 3

Filename C:\03 – Open Secrets.wav

Peak level 100.0 %
Track quality 100.0 %
Test CRC D3BCBE80
Copy CRC D3BCBE80
Track not present in AccurateRip database
Copy OK

Track 4

Filename C:\04 – Second Nature.wav

Peak level 100.0 %
Track quality 100.0 %
Test CRC 3E86B5B7
Copy CRC 3E86B5B7
Track not present in AccurateRip database
Copy OK

Track 5

Filename C:\05 – Prime Mover.wav

Peak level 100.0 %
Track quality 100.0 %
Test CRC EB9E8D81
Copy CRC EB9E8D81
Track not present in AccurateRip database
Copy OK

Track 6

Filename C:\06 – Lock And Key.wav

Pre-gap length 0:00:01.20

Peak level 100.0 %
Track quality 100.0 %
Test CRC 80BDFC88
Copy CRC 80BDFC88
Track not present in AccurateRip database
Copy OK

Track 7

Filename C:\07 – Mission.wav

Peak level 100.0 %
Track quality 100.0 %
Test CRC 19F7BA63
Copy CRC 19F7BA63
Track not present in AccurateRip database
Copy OK

Track 8

Filename C:\08 – Turn The Page.wav

Peak level 100.0 %
Track quality 100.0 %
Test CRC 0FC717BD
Copy CRC 0FC717BD
Track not present in AccurateRip database
Copy OK

Track 9

Filename C:\09 – Tai Shan.wav

Peak level 89.3 %
Track quality 100.0 %
Test CRC 285C3C49
Copy CRC 285C3C49
Track not present in AccurateRip database
Copy OK

Track 10

Filename C:\10 – High Water.wav

Peak level 100.0 %
Track quality 100.0 %
Test CRC 68B83428
Copy CRC 68B83428
Track not present in AccurateRip database
Copy OK

None of the tracks are present in the AccurateRip database

No errors occurred

End of status report

REM GENRE Rock
REM DATE 1987
REM DISCID 910BD80A
REM COMMENT “ExactAudioCopy v0.99pb4”
PERFORMER “Rush”
TITLE “Hold Your Fire [Japan AMCY-294]”
FILE “01 – Force Ten.wav” WAVE
TRACK 01 AUDIO
TITLE “Force Ten”
PERFORMER “Rush”
INDEX 01 00:00:00
FILE “02 – Time Stand Still.wav” WAVE
TRACK 02 AUDIO
TITLE “Time Stand Still”
PERFORMER “Rush”
INDEX 01 00:00:00
FILE “03 – Open Secrets.wav” WAVE
TRACK 03 AUDIO
TITLE “Open Secrets”
PERFORMER “Rush”
INDEX 01 00:00:00
FILE “04 – Second Nature.wav” WAVE
TRACK 04 AUDIO
TITLE “Second Nature”
PERFORMER “Rush”
INDEX 01 00:00:00
FILE “05 – Prime Mover.wav” WAVE
TRACK 05 AUDIO
TITLE “Prime Mover”
PERFORMER “Rush”
INDEX 01 00:00:00
TRACK 06 AUDIO
TITLE “Lock And Key”
PERFORMER “Rush”
INDEX 00 05:19:65
FILE “06 – Lock And Key.wav” WAVE
INDEX 01 00:00:00
FILE “07 – Mission.wav” WAVE
TRACK 07 AUDIO
TITLE “Mission”
PERFORMER “Rush”
INDEX 01 00:00:00
FILE “08 – Turn The Page.wav” WAVE
TRACK 08 AUDIO
TITLE “Turn The Page”
PERFORMER “Rush”
INDEX 01 00:00:00
FILE “09 – Tai Shan.wav” WAVE
TRACK 09 AUDIO
TITLE “Tai Shan”
PERFORMER “Rush”
INDEX 01 00:00:00
FILE “10 – High Water.wav” WAVE
TRACK 10 AUDIO
TITLE “High Water”
PERFORMER “Rush”
INDEX 01 00:00:00


Leave a Reply

Your email address will not be published. Required fields are marked *

This site uses Akismet to reduce spam. Learn how your comment data is processed.