Rush – Fly By Night (Japanese Edition)




No Cover available

Artist: Rush
Year: 1975/1997
Genre: Rock
Notes: Discogs
Add. Notes: Japanese Edition
Watch Songs on: YouTube
Cover incl.: Yes
Encoder: FLAC
Bitrate: ~800 kBit/s (44.1 kHz/16 Bit/s)
Log & Cue incl.: Yes/Yes
Size: 214,1 MB
Password: “slam” (without ” “)


All Downloads/Hosters are compatible

Download 1
KatFile.com
Turbobit.net
Rapidgator.net
FileFactory.com
Download 2
KatFile.com
Turbobit.net
Rapidgator.net
FileFactory.com

Tracklist:

1 Anthem 4:23
2 Best I Can 3:25
3 Beneath, Between & Behind 3:02
By-Tor & The Snow Dog (8:37)
4.I At The Tobes Of Hades 
4.II Across The Styx 
4.III Of The Battle 
4.IV Epilogue 
5 Fly By Night 3:21
6 Making Memories 2:58
7 Rivendell 4:56
8 In The End 6:46

EAC-Log, CUE-Sheed & NFO:

Click to open spoiler
Exact Audio Copy V0.99 prebeta 4 from 23. January 2008

EAC extraction logfile from 18. August 2010, 3:15

Rush / Fly By Night [Japan AMCY-315]

Used drive : BENQ CDRW 5232X Adapter: 1 ID: 0

Read mode : Secure
Utilize accurate stream : Yes
Defeat audio cache : Yes
Make use of C2 pointers : No

Read offset correction : 738
Overread into Lead-In and Lead-Out : No
Fill up missing offset samples with silence : Yes
Delete leading and trailing silent blocks : No
Null samples used in CRC calculations : Yes
Used interface : Installed external ASPI interface
Gap handling : Appended to previous track

Used output format : Internal WAV Routines
Sample format : 44.100 Hz; 16 Bit; Stereo

TOC of the extracted CD

Track | Start | Length | Start sector | End sector
———————————————————
1 | 0:00.00 | 4:27.35 | 0 | 20059
2 | 4:27.35 | 3:28.50 | 20060 | 35709
3 | 7:56.10 | 3:05.00 | 35710 | 49584
4 | 11:01.10 | 8:39.00 | 49585 | 88509
5 | 19:40.10 | 3:25.07 | 88510 | 103891
6 | 23:05.17 | 3:04.73 | 103892 | 117764
7 | 26:10.15 | 4:59.02 | 117765 | 140191
8 | 31:09.17 | 6:47.45 | 140192 | 170761

Track 1

Filename C:\01 – Anthem.wav

Pre-gap length 0:00:02.00

Peak level 100.0 %
Track quality 100.0 %
Test CRC FFB772F2
Copy CRC FFB772F2
Cannot be verified as accurate (confidence 1) [24A788B9], AccurateRip returned [F66A3DAE]
Copy OK

Track 2

Filename C:\02 – Best I Can.wav

Pre-gap length 0:00:03.70

Peak level 89.7 %
Track quality 100.0 %
Test CRC 5E779923
Copy CRC 5E779923
Cannot be verified as accurate (confidence 1) [829380D8], AccurateRip returned [143CF70C]
Copy OK

Track 3

Filename C:\03 – Beneath, Between & Behind.wav

Pre-gap length 0:00:02.30

Peak level 96.1 %
Track quality 100.0 %
Test CRC 1DFA11F7
Copy CRC 1DFA11F7
Cannot be verified as accurate (confidence 1) [1A4797E1], AccurateRip returned [9251210E]
Copy OK

Track 4

Filename C:\04 – By-Tor & The Snow Dog.wav

Pre-gap length 0:00:02.26

Peak level 95.9 %
Track quality 99.9 %
Test CRC EC99A921
Copy CRC EC99A921
Cannot be verified as accurate (confidence 1) [6012B194], AccurateRip returned [CB31A2A9]
Copy OK

Track 5

Filename C:\05 – Fly By Night.wav

Pre-gap length 0:00:01.20

Peak level 95.3 %
Track quality 100.0 %
Test CRC A684F8B6
Copy CRC A684F8B6
Cannot be verified as accurate (confidence 1) [8ECE86DB], AccurateRip returned [06CFFF55]
Copy OK

Track 6

Filename C:\06 – Making Memories.wav

Pre-gap length 0:00:02.73

Peak level 94.9 %
Track quality 99.9 %
Test CRC C302C00F
Copy CRC C302C00F
Cannot be verified as accurate (confidence 1) [2089DAEB], AccurateRip returned [C0602B40]
Copy OK

Track 7

Filename C:\07 – Rivendell.wav

Pre-gap length 0:00:06.10

Peak level 46.3 %
Track quality 100.0 %
Test CRC 38BCE26C
Copy CRC 38BCE26C
Cannot be verified as accurate (confidence 1) [A020574A], AccurateRip returned [3376E6DF]
Copy OK

Track 8

Filename C:\08 – In The End.wav

Pre-gap length 0:00:01.56

Peak level 91.9 %
Track quality 100.0 %
Test CRC 6E9929DD
Copy CRC 6E9929DD
Cannot be verified as accurate (confidence 1) [D125C130], AccurateRip returned [87AAAB89]
Copy OK

No tracks could be verified as accurate
You may have a different pressing from the one(s) in the database

No errors occurred

End of status report

REM GENRE “Progressive Rock”
REM DATE 1975
REM DISCID 7408E408
REM COMMENT “ExactAudioCopy v0.99pb4”
PERFORMER “Rush”
TITLE “Fly By Night [Japan AMCY-315]”
FILE “01 – Anthem.wav” WAVE
TRACK 01 AUDIO
TITLE “Anthem”
PERFORMER “Rush”
INDEX 01 00:00:00
TRACK 02 AUDIO
TITLE “Best I Can”
PERFORMER “Rush”
INDEX 00 04:23:57
FILE “02 – Best I Can.wav” WAVE
INDEX 01 00:00:00
TRACK 03 AUDIO
TITLE “Beneath, Between & Behind”
PERFORMER “Rush”
INDEX 00 03:26:27
FILE “03 – Beneath, Between & Behind.wav” WAVE
INDEX 01 00:00:00
TRACK 04 AUDIO
TITLE “By-Tor & The Snow Dog”
PERFORMER “Rush”
INDEX 00 03:02:55
FILE “04 – By-Tor & The Snow Dog.wav” WAVE
INDEX 01 00:00:00
TRACK 05 AUDIO
TITLE “Fly By Night”
PERFORMER “Rush”
INDEX 00 08:37:60
FILE “05 – Fly By Night.wav” WAVE
INDEX 01 00:00:00
TRACK 06 AUDIO
TITLE “Making Memories”
PERFORMER “Rush”
INDEX 00 03:22:27
FILE “06 – Making Memories.wav” WAVE
INDEX 01 00:00:00
TRACK 07 AUDIO
TITLE “Rivendell”
PERFORMER “Rush”
INDEX 00 02:58:65
FILE “07 – Rivendell.wav” WAVE
INDEX 01 00:00:00
TRACK 08 AUDIO
TITLE “In The End”
PERFORMER “Rush”
INDEX 00 04:57:35
FILE “08 – In The End.wav” WAVE
INDEX 01 00:00:00


0

Publication author

offline 7 days

Chaos

3
Comments: 4Publics: 3565Registration: 02-02-2019
Spread the Download

Leave a Reply

Your email address will not be published. Required fields are marked *

Enter the text from the image below
 

This site uses Akismet to reduce spam. Learn how your comment data is processed.