Rush – Counterparts (Japanese Edition)




No Cover available

Artist: Rush
Year: 1993
Genre: Rock
Notes: Discogs
Add. Notes: Japanese Edition
Watch Songs on: YouTube
Cover incl.: Yes
Encoder: FLAC
Bitrate: ~1000 kBit/s (44.1 kHz/16 Bit/s)
Log & Cue incl.: Yes/Yes
Size: 406,9 MB
Password: “slam” (without ” “)


All Downloads/Hosters are compatible

Download 1
KatFile.com
Turbobit.net
Rapidgator.net
FileFactory.com
Download 2
KatFile.com
Turbobit.net
Rapidgator.net
FileFactory.com

Tracklist:

1 Animate 6:05
2 Stick It Out 4:30
3 Cut To The Chase 4:49
4 Nobody's Hero 4:54
5 Between Sun & Moon 4:37
6 Alien Shore 5:45
7 The Speed Of Love 5:03
8 Double Agent 4:51
9 Leave That Thing Alone 4:06
10 Cold Fire 4:27
11 Everyday Glory 5:10

EAC-Log, CUE-Sheed & NFO:

Click to open spoiler
Exact Audio Copy V0.99 prebeta 4 from 23. January 2008

EAC extraction logfile from 19. August 2010, 19:13

Rush / Counterparts [Japan AMCY-608]

Used drive : BENQ CDRW 5232X Adapter: 1 ID: 0

Read mode : Secure
Utilize accurate stream : Yes
Defeat audio cache : Yes
Make use of C2 pointers : No

Read offset correction : 738
Overread into Lead-In and Lead-Out : No
Fill up missing offset samples with silence : Yes
Delete leading and trailing silent blocks : No
Null samples used in CRC calculations : Yes
Used interface : Installed external ASPI interface
Gap handling : Appended to previous track

Used output format : Internal WAV Routines
Sample format : 44.100 Hz; 16 Bit; Stereo

TOC of the extracted CD

Track | Start | Length | Start sector | End sector
———————————————————
1 | 0:00.00 | 6:04.07 | 0 | 27306
2 | 6:04.07 | 4:30.60 | 27307 | 47616
3 | 10:34.67 | 4:48.65 | 47617 | 69281
4 | 15:23.57 | 4:55.35 | 69282 | 91441
5 | 20:19.17 | 4:37.60 | 91442 | 112276
6 | 24:57.02 | 5:47.68 | 112277 | 138369
7 | 30:44.70 | 5:02.65 | 138370 | 161084
8 | 35:47.60 | 4:52.47 | 161085 | 183031
9 | 40:40.32 | 4:06.05 | 183032 | 201486
10 | 44:46.37 | 4:26.60 | 201487 | 221496
11 | 49:13.22 | 5:11.48 | 221497 | 244869

Track 1

Filename C:\01 – Animate.wav

Pre-gap length 0:00:02.00

Peak level 97.8 %
Track quality 100.0 %
Test CRC 31249549
Copy CRC 31249549
Track not present in AccurateRip database
Copy OK

Track 2

Filename C:\02 – Stick It Out.wav

Peak level 97.7 %
Track quality 100.0 %
Test CRC 3A8E0F68
Copy CRC 3A8E0F68
Track not present in AccurateRip database
Copy OK

Track 3

Filename C:\03 – Cut To The Chase.wav

Peak level 97.7 %
Track quality 99.9 %
Test CRC 7277D9E5
Copy CRC 7277D9E5
Track not present in AccurateRip database
Copy OK

Track 4

Filename C:\04 – Nobody’s Hero.wav

Peak level 97.7 %
Track quality 100.0 %
Test CRC E19D4CB7
Copy CRC E19D4CB7
Track not present in AccurateRip database
Copy OK

Track 5

Filename C:\05 – Between Sun & Moon.wav

Peak level 97.7 %
Track quality 100.0 %
Test CRC 06EB866B
Copy CRC 06EB866B
Track not present in AccurateRip database
Copy OK

Track 6

Filename C:\06 – Alien Shore.wav

Peak level 97.7 %
Track quality 100.0 %
Test CRC 0C406941
Copy CRC 0C406941
Track not present in AccurateRip database
Copy OK

Track 7

Filename C:\07 – The Speed Of Love.wav

Pre-gap length 0:00:01.84

Peak level 97.7 %
Track quality 100.0 %
Test CRC BBE07B99
Copy CRC BBE07B99
Track not present in AccurateRip database
Copy OK

Track 8

Filename C:\08 – Double Agent.wav

Peak level 97.7 %
Track quality 100.0 %
Test CRC 5BEC9686
Copy CRC 5BEC9686
Track not present in AccurateRip database
Copy OK

Track 9

Filename C:\09 – Leave That Thing Alone.wav

Peak level 97.7 %
Track quality 99.9 %
Test CRC 24C86A46
Copy CRC 24C86A46
Track not present in AccurateRip database
Copy OK

Track 10

Filename C:\10 – Cold Fire.wav

Peak level 97.9 %
Track quality 100.0 %
Test CRC 4B13D159
Copy CRC 4B13D159
Track not present in AccurateRip database
Copy OK

Track 11

Filename C:\11 – Everyday Glory.wav

Peak level 97.7 %
Track quality 100.0 %
Test CRC 30119718
Copy CRC 30119718
Track not present in AccurateRip database
Copy OK

None of the tracks are present in the AccurateRip database

No errors occurred

End of status report

REM GENRE Rock
REM DATE 1993
REM DISCID A90CC00B
REM COMMENT “ExactAudioCopy v0.99pb4”
PERFORMER “Rush”
TITLE “Counterparts [Japan AMCY-608]”
FILE “01 – Animate.wav” WAVE
TRACK 01 AUDIO
TITLE “Animate”
PERFORMER “Rush”
INDEX 01 00:00:00
FILE “02 – Stick It Out.wav” WAVE
TRACK 02 AUDIO
TITLE “Stick It Out”
PERFORMER “Rush”
INDEX 01 00:00:00
FILE “03 – Cut To The Chase.wav” WAVE
TRACK 03 AUDIO
TITLE “Cut To The Chase”
PERFORMER “Rush”
INDEX 01 00:00:00
FILE “04 – Nobody’s Hero.wav” WAVE
TRACK 04 AUDIO
TITLE “Nobody’s Hero”
PERFORMER “Rush”
INDEX 01 00:00:00
FILE “05 – Between Sun & Moon.wav” WAVE
TRACK 05 AUDIO
TITLE “Between Sun & Moon”
PERFORMER “Rush”
INDEX 01 00:00:00
FILE “06 – Alien Shore.wav” WAVE
TRACK 06 AUDIO
TITLE “Alien Shore”
PERFORMER “Rush”
INDEX 01 00:00:00
TRACK 07 AUDIO
TITLE “The Speed Of Love”
PERFORMER “Rush”
INDEX 00 05:46:05
FILE “07 – The Speed Of Love.wav” WAVE
INDEX 01 00:00:00
FILE “08 – Double Agent.wav” WAVE
TRACK 08 AUDIO
TITLE “Double Agent”
PERFORMER “Rush”
INDEX 01 00:00:00
FILE “09 – Leave That Thing Alone.wav” WAVE
TRACK 09 AUDIO
TITLE “Leave That Thing Alone”
PERFORMER “Rush”
INDEX 01 00:00:00
FILE “10 – Cold Fire.wav” WAVE
TRACK 10 AUDIO
TITLE “Cold Fire”
PERFORMER “Rush”
INDEX 01 00:00:00
FILE “11 – Everyday Glory.wav” WAVE
TRACK 11 AUDIO
TITLE “Everyday Glory”
PERFORMER “Rush”
INDEX 01 00:00:00


0

Publication author

offline 8 hours

Chaos

3
Comments: 4Publics: 3360Registration: 02-02-2019
Spread the Download

Leave a Reply

Your email address will not be published. Required fields are marked *

Enter the text from the image below
 

This site uses Akismet to reduce spam. Learn how your comment data is processed.