Rush – A Farewell To Kings (Japanese Edition)




No Cover available

Artist: Rush
Year: 1977/1991
Genre:
Notes: Discogs
Add. Notes: Japanese Edition
Watch Songs on: YouTube
Cover incl.: Yes
Encoder: FLAC
Bitrate: ~800 kBit/s (44.1 kHz/16 Bit/s)
Log & Cue incl.: Yes/Yes
Size: 225,8 MB
Password: “slam” (without ” “)


All Downloads/Hosters are compatible

Download 1
KatFile.com
Turbobit.net
Rapidgator.net
FileFactory.com
Download 2
KatFile.com
Turbobit.net
Rapidgator.net
FileFactory.com

Tracklist:

1 A Farewell To Kings 
2 Xanadu 
3 Closer To The Heart 
4 Cinderella Man 
5 Madrigal 
6 Cygnus X-1 

EAC-Log, CUE-Sheed & NFO:

Click to open spoiler

Exact Audio Copy V0.99 prebeta 4 from 23. January 2008

EAC extraction logfile from 19. August 2010, 15:03

Rush / A Farewell To Kings [Japan AMCY-319]

Used drive : BENQ CDRW 5232X Adapter: 1 ID: 0

Read mode : Secure
Utilize accurate stream : Yes
Defeat audio cache : Yes
Make use of C2 pointers : No

Read offset correction : 738
Overread into Lead-In and Lead-Out : No
Fill up missing offset samples with silence : Yes
Delete leading and trailing silent blocks : No
Null samples used in CRC calculations : Yes
Used interface : Installed external ASPI interface
Gap handling : Appended to previous track

Used output format : Internal WAV Routines
Sample format : 44.100 Hz; 16 Bit; Stereo

TOC of the extracted CD

Track | Start | Length | Start sector | End sector
———————————————————
1 | 0:00.00 | 5:55.35 | 0 | 26659
2 | 5:55.35 | 11:11.37 | 26660 | 77021
3 | 17:06.72 | 2:55.63 | 77022 | 90209
4 | 20:02.60 | 4:23.60 | 90210 | 109994
5 | 24:26.45 | 2:36.27 | 109995 | 121721
6 | 27:02.72 | 10:26.00 | 121722 | 168671

Track 1

Filename C:\01 – A Farewell To Kings.wav

Pre-gap length 0:00:02.00

Peak level 95.5 %
Track quality 100.0 %
Test CRC EB425F40
Copy CRC EB425F40
Track not present in AccurateRip database
Copy OK

Track 2

Filename C:\02 – Xanadu.wav

Pre-gap length 0:00:02.60

Peak level 95.5 %
Track quality 100.0 %
Test CRC 5BE78D25
Copy CRC 5BE78D25
Track not present in AccurateRip database
Copy OK

Track 3

Filename C:\03 – Closer To The Heart.wav

Pre-gap length 0:00:02.16

Peak level 94.2 %
Track quality 100.0 %
Test CRC 5E54E756
Copy CRC 5E54E756
Track not present in AccurateRip database
Copy OK

Track 4

Filename C:\04 – Cinderella Man.wav

Pre-gap length 0:00:01.44

Peak level 92.7 %
Track quality 100.0 %
Test CRC 62822B94
Copy CRC 62822B94
Track not present in AccurateRip database
Copy OK

Track 5

Filename C:\05 – Madrigal.wav

Pre-gap length 0:00:01.73

Peak level 69.8 %
Track quality 100.0 %
Test CRC 36671ACB
Copy CRC 36671ACB
Track not present in AccurateRip database
Copy OK

Track 6

Filename C:\06 – Cygnus X-1.wav

Peak level 95.5 %
Track quality 100.0 %
Test CRC 525C42F6
Copy CRC 525C42F6
Track not present in AccurateRip database
Copy OK

None of the tracks are present in the AccurateRip database

No errors occurred

End of status report

REM GENRE “Progressive Rock”
REM DATE 1977
REM DISCID 4308C806
REM COMMENT “ExactAudioCopy v0.99pb4”
PERFORMER “Rush”
TITLE “A Farewell To Kings [Japan AMCY-319]”
FILE “01 – A Farewell To Kings.wav” WAVE
TRACK 01 AUDIO
TITLE “A Farewell To Kings”
PERFORMER “Rush”
INDEX 01 00:00:00
TRACK 02 AUDIO
TITLE “Xanadu”
PERFORMER “Rush”
INDEX 00 05:52:65
FILE “02 – Xanadu.wav” WAVE
INDEX 01 00:00:00
TRACK 03 AUDIO
TITLE “Closer To The Heart”
PERFORMER “Rush”
INDEX 00 11:09:25
FILE “03 – Closer To The Heart.wav” WAVE
INDEX 01 00:00:00
TRACK 04 AUDIO
TITLE “Cinderella Man”
PERFORMER “Rush”
INDEX 00 02:54:30
FILE “04 – Cinderella Man.wav” WAVE
INDEX 01 00:00:00
TRACK 05 AUDIO
TITLE “Madrigal”
PERFORMER “Rush”
INDEX 00 04:22:05
FILE “05 – Madrigal.wav” WAVE
INDEX 01 00:00:00
FILE “06 – Cygnus X-1.wav” WAVE
TRACK 06 AUDIO
TITLE “Cygnus X-1”
PERFORMER “Rush”
INDEX 01 00:00:00


Leave a Reply

Your email address will not be published. Required fields are marked *

Enter the text from the image below
 

This site uses Akismet to reduce spam. Learn how your comment data is processed.