Running Wild – Victory (Limited Edition)




[Total: 0    Average: 0/5]

Artist: Running Wild
Year: 1999
Genre: Metal
Notes: Discogs
Add. Notes: Limited Edition
Cover incl.: Yes
Encoder: FLAC
Bitrate: ~1000 kBit/s (44.1 kHz/16 Bit/s)
Log & Cue incl.: Yes
Size: 524,43 MB
Password: “slam” (without ” “)


All Downloads/Hosters are compatible

Download 1
Share-online.biz
KatFile.com
Rapidgator.net
ddl.to
Download 2
Share-online.biz
KatFile.com
Rapidgator.net
ddl.to

Tracklist:

1 - Fall Of Dorkas - 5:16
2 - When Time Runs Out - 5:16
3 - Timeriders - 4:22
4 - Into The Fire - 4:55
5 - Revolution - 2:56
6 - The Final Waltz - 1:19
7 - Tsar - 7:07
8 - The Hussar - 4:03
9 - The Guardian - 5:07
10 - Return Of The Gods - 5:29
11 - Silent Killer - 4:43
12 - Victory - 4:49

EAC-Log, CUE-Sheed & NFO:

Click to open spoiler
Exact Audio Copy V1.0 beta 3 from 29. August 2011

EAC extraction logfile from 1. March 2013, 17:27

Running Wild / Victory [EU, GUN 187 (BMG 74321 72823 2)]

Used drive : HL-DT-STDVDRAM GSA-T50F Adapter: 0 ID: 2

Read mode : Secure
Utilize accurate stream : Yes
Defeat audio cache : Yes
Make use of C2 pointers : No

Read offset correction : 667
Overread into Lead-In and Lead-Out : No
Fill up missing offset samples with silence : Yes
Delete leading and trailing silent blocks : No
Null samples used in CRC calculations : Yes
Used interface : Installed external ASPI interface

Used output format : Internal WAV Routines
Sample format : 44.100 Hz; 16 Bit; Stereo

TOC of the extracted CD

Track | Start | Length | Start sector | End sector
———————————————————
1 | 0:00.00 | 5:16.20 | 0 | 23719
2 | 5:16.20 | 5:17.39 | 23720 | 47533
3 | 10:33.59 | 4:24.11 | 47534 | 67344
4 | 14:57.70 | 4:56.70 | 67345 | 89614
5 | 19:54.65 | 2:58.19 | 89615 | 102983
6 | 22:53.09 | 1:19.23 | 102984 | 108931
7 | 24:12.32 | 7:08.39 | 108932 | 141070
8 | 31:20.71 | 4:04.64 | 141071 | 159434
9 | 35:25.60 | 5:09.01 | 159435 | 182610
10 | 40:34.61 | 5:30.51 | 182611 | 207411
11 | 46:05.37 | 4:45.27 | 207412 | 228813
12 | 50:50.64 | 4:48.54 | 228814 | 250467

Range status and errors

Selected range

Filename D:\Rip by Ballcrusher\Running Wild – Victory [EU, GUN 187 (BMG 74321 72823 2)].wav

Peak level 100.0 %
Extraction speed 4.2 X
Range quality 100.0 %
Test CRC 3BC9C158
Copy CRC 3BC9C158
Copy OK

No errors occurred

AccurateRip summary

Track 1 accurately ripped (confidence 2) [38D914B7] (AR v2)
Track 2 accurately ripped (confidence 2) [2B6EC32F] (AR v2)
Track 3 accurately ripped (confidence 2) [29747228] (AR v2)
Track 4 accurately ripped (confidence 2) [4AA13704] (AR v2)
Track 5 accurately ripped (confidence 2) [F78BFEC9] (AR v2)
Track 6 accurately ripped (confidence 2) [4ABEB8BF] (AR v2)
Track 7 accurately ripped (confidence 2) [603C42F5] (AR v2)
Track 8 accurately ripped (confidence 2) [13FFE72A] (AR v2)
Track 9 accurately ripped (confidence 2) [6C639FC1] (AR v2)
Track 10 accurately ripped (confidence 2) [5F53D400] (AR v2)
Track 11 accurately ripped (confidence 2) [8FD74F84] (AR v2)
Track 12 accurately ripped (confidence 2) [D0295C39] (AR v2)

All tracks accurately ripped

End of status report

==== Log checksum D51C4870096B7DAFC1F1DCC3EFCC7B1949C25D9A057E681ABF7B8EFD41740A66 ====

REM DATE 1999
REM DISCID B30D0B0C
REM COMMENT “ExactAudioCopy v1.0b3”
PERFORMER “Running Wild”
TITLE “Victory [EU, GUN 187 (BMG 74321 72823 2)]”
FILE “Running Wild – Victory [EU, GUN 187 (BMG 74321 72823 2)].flac” WAVE
TRACK 01 AUDIO
TITLE “Fall Of Dorkas”
PERFORMER “Running Wild”
INDEX 01 00:00:00
TRACK 02 AUDIO
TITLE “When Time Runs Out”
PERFORMER “Running Wild”
INDEX 01 05:16:20
TRACK 03 AUDIO
TITLE “Timeriders”
PERFORMER “Running Wild”
INDEX 00 10:31:59
INDEX 01 10:33:59
TRACK 04 AUDIO
TITLE “Into The Fire”
PERFORMER “Running Wild”
INDEX 00 14:55:70
INDEX 01 14:57:70
TRACK 05 AUDIO
TITLE “Revolution”
PERFORMER “Running Wild”
INDEX 00 19:52:65
INDEX 01 19:54:65
TRACK 06 AUDIO
TITLE “The Final Waltz”
PERFORMER “Running Wild”
INDEX 00 22:51:09
INDEX 01 22:53:09
TRACK 07 AUDIO
TITLE “Tsar”
PERFORMER “Running Wild”
INDEX 01 24:12:32
TRACK 08 AUDIO
TITLE “The Hussar”
PERFORMER “Running Wild”
INDEX 00 31:18:71
INDEX 01 31:20:71
TRACK 09 AUDIO
TITLE “The Guardian”
PERFORMER “Running Wild”
INDEX 00 35:23:60
INDEX 01 35:25:60
TRACK 10 AUDIO
TITLE “Return Of The Gods”
PERFORMER “Running Wild”
INDEX 00 40:32:61
INDEX 01 40:34:61
TRACK 11 AUDIO
TITLE “Silent Killer”
PERFORMER “Running Wild”
INDEX 00 46:03:37
INDEX 01 46:05:37
TRACK 12 AUDIO
TITLE “Victory”
PERFORMER “Running Wild”
INDEX 00 50:48:65
INDEX 01 50:50:64


Spread the Download

Leave a Reply

Your email address will not be published. Required fields are marked *

Enter the text from the image below
 

This site uses Akismet to reduce spam. Learn how your comment data is processed.