Running Wild – Under Jolly Roger




Artist: Running Wild
Year: 1987
Genre: Metal
Notes: Discogs
Add. Notes:
Cover incl.: Yes
Encoder: FLAC
Bitrate: ~1000 kBit/s (44.1 kHz/16 Bit/s)
Log & Cue incl.: Yes
Size: 333,5 MB
Password: “slam” (without ” “)


All Downloads/Hosters are compatible

Download 1
KatFile.com
Turbobit.net
Rapidgator.net
Usersdrive.com
Download 2
KatFile.com
Turbobit.net
Rapidgator.net
Usersdrive.com

Tracklist:

1 - Under Jolly Roger - 4:42
2 - War In The Gutter - 3:19
3 - Raw Ride - 4:39
4 - Beggar's Night - 5:05
5 - Raise Your Fist - 5:30
6 - Land Of Ice - 4:56
7 - Diamonds Of The Black Chest - 3:07
8 - Merciless Game - 3:45

EAC-Log, CUE-Sheed & NFO:

Click to open spoiler
Exact Audio Copy V1.0 beta 1 from 15. November 2010

EAC extraction logfile from 5. February 2011, 12:26

Running Wild / Under Jolly Roger

Used drive : TOSHIBA ODD-DVD SD-R5272 Adapter: 0 ID: 1

Read mode : Secure
Utilize accurate stream : Yes
Defeat audio cache : Yes
Make use of C2 pointers : No

Read offset correction : 116
Overread into Lead-In and Lead-Out : No
Fill up missing offset samples with silence : Yes
Delete leading and trailing silent blocks : No
Null samples used in CRC calculations : Yes
Used interface : Installed external ASPI interface

Used output format : Internal WAV Routines
Sample format : 44.100 Hz; 16 Bit; Stereo

TOC of the extracted CD

Track | Start | Length | Start sector | End sector
———————————————————
1 | 0:00.00 | 4:42.42 | 0 | 21191
2 | 4:42.42 | 5:06.00 | 21192 | 44141
3 | 9:48.42 | 3:07.25 | 44142 | 58191
4 | 12:55.67 | 3:19.13 | 58192 | 73129
5 | 16:15.05 | 5:29.15 | 73130 | 97819
6 | 21:44.20 | 4:55.40 | 97820 | 119984
7 | 26:39.60 | 4:34.27 | 119985 | 140561
8 | 31:14.12 | 3:49.65 | 140562 | 157801

Range status and errors

Selected range

Filename D:\Running Wild – 1987 – Under Jolly Roger\Running Wild – Under Jolly Roger.wav

Peak level 86.0 %
Extraction speed 0.5 X
Range quality 100.0 %
Test CRC 28E50BFA
Copy CRC 28E50BFA
Copy OK

No errors occurred

AccurateRip summary

Track 1 accurately ripped (confidence 10) [6F5D7ED2]
Track 2 accurately ripped (confidence 10) [7CB3283B]
Track 3 accurately ripped (confidence 10) [09BF33D0]
Track 4 accurately ripped (confidence 10) [A11AC1B5]
Track 5 accurately ripped (confidence 10) [0779F319]
Track 6 accurately ripped (confidence 10) [5F06D584]
Track 7 accurately ripped (confidence 10) [41AA2317]
Track 8 accurately ripped (confidence 10) [0490D9F8]

All tracks accurately ripped

End of status report

==== Log checksum D72352E4B4E538D8CB72F40F5BD861A5C5007EBC4FE0E2D6A23931C7FBB534CC ====

REM GENRE “Heavy Metal”
REM DATE 1987
REM DISCID 72083808
REM COMMENT “ExactAudioCopy v1.0b1”
CATALOG “N 0064-2”
PERFORMER “Running Wild”
TITLE “Under Jolly Roger”
FILE “Running Wild – Under Jolly Roger.flac” WAVE
TRACK 01 AUDIO
TITLE “Under Jolly Roger”
PERFORMER “Running Wild”
INDEX 01 00:00:00
TRACK 02 AUDIO
TITLE “Beggar’s Night”
PERFORMER “Running Wild”
INDEX 01 04:42:42
TRACK 03 AUDIO
TITLE “Diamonds Of The Black Chest”
PERFORMER “Running Wild”
INDEX 01 09:48:42
TRACK 04 AUDIO
TITLE “War In The Gutter”
PERFORMER “Running Wild”
INDEX 01 12:55:67
TRACK 05 AUDIO
TITLE “Raise Your Fist”
PERFORMER “Running Wild”
INDEX 01 16:15:05
TRACK 06 AUDIO
TITLE “Land Of Ice”
PERFORMER “Running Wild”
INDEX 01 21:44:20
TRACK 07 AUDIO
TITLE “Raw Ride”
PERFORMER “Running Wild”
INDEX 01 26:39:60
TRACK 08 AUDIO
TITLE “Merciless Game”
PERFORMER “Running Wild”
INDEX 01 31:14:12


Leave a Reply

Your email address will not be published. Required fields are marked *

Enter the text from the image below
 

This site uses Akismet to reduce spam. Learn how your comment data is processed.