Running Wild – Under Jolly Roger (Japanese Edition)




Artist: Running Wild
Year: 1987/1993
Genre: Metal
Notes: Discogs
Add. Notes: Japanese Edition
Cover incl.: Yes
Encoder: FLAC
Bitrate: ~1100 kBit/s (44.1 kHz/16 Bit/s)
Log & Cue incl.: Yes
Size: 340 MB
Password: “slam” (without ” “)


All Downloads/Hosters are compatible

Download 1
KatFile.com
Turbobit.net
Rapidgator.net
Download 2
KatFile.com
Turbobit.net
Rapidgator.net

Tracklist:

1 - Under Jolly Roger - 4:42
2 - Beggar's Night - 5:05
3 - Diamonds Of The Black Chest - 
3:07
4 - War In The Gutter - 3:19
5 - Raise Your Fist - 5:29
6 - Land Of Ice - 4:55
7 - Raw Ride - 4:34
8 - Merciless Game - 3:49

EAC-Log, CUE-Sheed & NFO:

Click to open spoiler
Exact Audio Copy V1.0 beta 3 from 29. August 2011

EAC extraction logfile from 1. March 2012, 15:25

Running Wild / Under Jolly Roger [Japan, Victor, VICP-23075, 1993]

Used drive : HL-DT-STDVDRAM GSA-T50F Adapter: 0 ID: 2

Read mode : Secure
Utilize accurate stream : Yes
Defeat audio cache : Yes
Make use of C2 pointers : No

Read offset correction : 667
Overread into Lead-In and Lead-Out : No
Fill up missing offset samples with silence : Yes
Delete leading and trailing silent blocks : No
Null samples used in CRC calculations : Yes
Used interface : Installed external ASPI interface

Used output format : Internal WAV Routines
Sample format : 44.100 Hz; 16 Bit; Stereo

TOC of the extracted CD

Track | Start | Length | Start sector | End sector
———————————————————
1 | 0:00.37 | 4:42.60 | 37 | 21246
2 | 4:43.22 | 5:05.68 | 21247 | 44189
3 | 9:49.15 | 3:07.32 | 44190 | 58246
4 | 12:56.47 | 3:19.03 | 58247 | 73174
5 | 16:15.50 | 5:29.17 | 73175 | 97866
6 | 21:44.67 | 4:55.43 | 97867 | 120034
7 | 26:40.35 | 4:34.15 | 120035 | 140599
8 | 31:14.50 | 3:49.12 | 140600 | 157786

Range status and errors

Selected range

Filename D:\Rip by Ballcrusher\Running Wild – Under Jolly Roger [Japan, Victor, VICP-23075, 1993].wav

Peak level 100.0 %
Extraction speed 3.7 X
Range quality 100.0 %
Test CRC FF489B61
Copy CRC FF489B61
Copy OK

No errors occurred

AccurateRip summary

Track 1 not present in database
Track 2 not present in database
Track 3 not present in database
Track 4 not present in database
Track 5 not present in database
Track 6 not present in database
Track 7 not present in database
Track 8 not present in database

None of the tracks are present in the AccurateRip database

End of status report

==== Log checksum 8BA39CD50890ACFD57878F5F1DFE822E0FBCABFA59395BE4EA5869547229F54D ====

REM DATE 1987
REM DISCID 76083708
REM COMMENT “ExactAudioCopy v1.0b3”
PERFORMER “Running Wild”
TITLE “Under Jolly Roger [Japan, Victor, VICP-23075, 1993]”
FILE “Running Wild – Under Jolly Roger [Japan, Victor, VICP-23075, 1993].flac” WAVE
TRACK 01 AUDIO
TITLE “Under Jolly Roger”
PERFORMER “Running Wild”
INDEX 00 00:00:00
INDEX 01 00:00:37
TRACK 02 AUDIO
TITLE “Beggar’s Night”
PERFORMER “Running Wild”
INDEX 01 04:43:22
TRACK 03 AUDIO
TITLE “Diamonds Of The Black Chest”
PERFORMER “Running Wild”
INDEX 01 09:49:15
TRACK 04 AUDIO
TITLE “War In The Gutter”
PERFORMER “Running Wild”
INDEX 01 12:56:47
TRACK 05 AUDIO
TITLE “Raise Your Fist”
PERFORMER “Running Wild”
INDEX 01 16:15:50
TRACK 06 AUDIO
TITLE “Land Of Ice”
PERFORMER “Running Wild”
INDEX 01 21:44:67
TRACK 07 AUDIO
TITLE “Raw Ride”
PERFORMER “Running Wild”
INDEX 01 26:40:35
TRACK 08 AUDIO
TITLE “Merciless Game”
PERFORMER “Running Wild”
INDEX 01 31:14:50


Leave a Reply

Your email address will not be published. Required fields are marked *

Enter the text from the image below
 

This site uses Akismet to reduce spam. Learn how your comment data is processed.