Running Wild – Under Jolly Roger




Artist: Running Wild
Year: 1987
Genre: Metal
Notes: Discogs
Add. Notes:
Cover incl.: Yes
Encoder: FLAC
Bitrate: ~1100 kBit/s (44.1 kHz/16 Bit/s)
Log & Cue incl.: Yes
Size: 299 MB
Password: “slam” (without ” “)


All Downloads/Hosters are compatible

Download 1
KatFile.com
Turbobit.net
FileFactory.com
Rapidgator.net
Download 2
KatFile.com
Turbobit.net
FileFactory.com
Rapidgator.net

Tracklist:

1 - Under Jolly Roger - 4:42
2 - Beggar's Night - 5:05
3 - Diamonds Of The Black Chest - 
3:07
4 - War In The Gutter - 3:19
5 - Raise Your Fist - 5:30
6 - Land Of Ice - 4:56
7 - Raw Ride - 4:39
8 - Merciless Game - 3:45

EAC-Log, CUE-Sheed & NFO:

Click to open spoiler
Exact Audio Copy V1.0 beta 3 from 29. August 2011

EAC extraction logfile from 13. February 2014, 16:06

Running Wild / Under Jolly Roger [Noise, N 0064-2, Germany]

Used drive : PIONEER DVD-RW DVR-112D Adapter: 0 ID: 0

Read mode : Secure
Utilize accurate stream : Yes
Defeat audio cache : Yes
Make use of C2 pointers : No

Read offset correction : 48
Overread into Lead-In and Lead-Out : No
Fill up missing offset samples with silence : Yes
Delete leading and trailing silent blocks : No
Null samples used in CRC calculations : Yes
Used interface : Installed external ASPI interface

Used output format : User Defined Encoder
Selected bitrate : 1024 kBit/s
Quality : High
Add ID3 tag : No
Command line compressor : C:\Program Files\Exact Audio Copy\FLAC\FLAC.EXE
Additional command line options : -V -8 -T “Date=%year%” -T “Genre=%genre%” %source%

TOC of the extracted CD

Track | Start | Length | Start sector | End sector
———————————————————
1 | 0:00.00 | 4:42.72 | 0 | 21221
2 | 4:42.72 | 5:06.00 | 21222 | 44171
3 | 9:48.72 | 3:07.23 | 44172 | 58219
4 | 12:56.20 | 3:19.25 | 58220 | 73169
5 | 16:15.45 | 5:29.12 | 73170 | 97856
6 | 21:44.57 | 4:55.38 | 97857 | 120019
7 | 26:40.20 | 4:34.25 | 120020 | 140594
8 | 31:14.45 | 3:50.12 | 140595 | 157856

Range status and errors

Selected range

Filename C:\CDRip by Deminbek\Running Wild – Under Jolly Roger [Noise, N 0064-2, Germany].wav

Peak level 96.5 %
Extraction speed 6.5 X
Range quality 100.0 %
Test CRC CF322929
Copy CRC CF322929
Copy OK

No errors occurred

AccurateRip summary

Track 1 accurately ripped (confidence 3) [8F84B46D] (AR v2)
Track 2 accurately ripped (confidence 3) [3EBA85D7] (AR v2)
Track 3 accurately ripped (confidence 3) [C8628C11] (AR v2)
Track 4 accurately ripped (confidence 3) [D875ACB4] (AR v2)
Track 5 accurately ripped (confidence 3) [1D570FCE] (AR v2)
Track 6 accurately ripped (confidence 3) [8D67FA9D] (AR v2)
Track 7 accurately ripped (confidence 3) [F8122851] (AR v2)
Track 8 accurately ripped (confidence 3) [6C3F9057] (AR v2)

All tracks accurately ripped

End of status report

—- CUETools DB Plugin V2.1.3

[CTDB TOCID: 34dmkav6Jark64JYH7I7dZkOWdc-] found, Submit result: 34dmkav6Jark64JYH7I7dZkOWdc- has been confirmed
[abdaf289] (1/1) Accurately ripped

==== Log checksum E10C300CD1BB78CB5DE89BDA164EAD64F02ABD3F97DC3C7002BF1C886A128722 ====

REM GENRE “Heavy Metal”
REM DATE 1987
REM DISCID 74083808
REM COMMENT “ExactAudioCopy v1.0b3”
PERFORMER “Running Wild”
TITLE “Under Jolly Roger [Noise, N 0064-2, Germany]”
FILE “Running Wild – Under Jolly Roger [Noise, N 0064-2, Germany].flac” WAVE
TRACK 01 AUDIO
TITLE “Under Jolly Roger”
PERFORMER “Running Wild”
INDEX 01 00:00:00
TRACK 02 AUDIO
TITLE “Beggars’ Night”
PERFORMER “Running Wild”
INDEX 01 04:42:72
TRACK 03 AUDIO
TITLE “Diamonds Of The Black Chest”
PERFORMER “Running Wild”
INDEX 01 09:48:72
TRACK 04 AUDIO
TITLE “War In The Gutter”
PERFORMER “Running Wild”
INDEX 01 12:56:20
TRACK 05 AUDIO
TITLE “Raise Your Fist”
PERFORMER “Running Wild”
INDEX 01 16:15:45
TRACK 06 AUDIO
TITLE “Land Of Ice”
PERFORMER “Running Wild”
INDEX 01 21:44:57
TRACK 07 AUDIO
TITLE “Raw Ride”
PERFORMER “Running Wild”
INDEX 01 26:40:20
TRACK 08 AUDIO
TITLE “Merciless Game”
PERFORMER “Running Wild”
INDEX 01 31:14:45


Leave a Reply

Your email address will not be published. Required fields are marked *

Enter the text from the image below
 

This site uses Akismet to reduce spam. Learn how your comment data is processed.