Running Wild – The Story Of Jolly Roger (Remastered Japanese Edition)




[Total: 0    Average: 0/5]

Artist: Running Wild
Year: 1998
Genre: Metal
Notes: Discogs
Add. Notes: Remastered Japanese Edition
Cover incl.: Yes
Encoder: FLAC
Bitrate: ~1000 kBit/s (44.1 kHz/16 Bit/s)
Log & Cue incl.: Yes
Size: 664,65 MB
Password: “slam” (without ” “)


All Downloads/Hosters are compatible

Download 1
Share-online.biz
KatFile.com
Rapidgator.net
NitroFlare.com
Download 2
Share-online.biz
KatFile.com
Rapidgator.net
NitroFlare.com

Tracklist:

1 - Riding The Storm - 6:28
2 - Under Jolly Roger - 4:42
3 - Blazon Stone - 6:31
4 - Sinister Eyes - 5:07
5 - Purgatory - 5:35
6 - Bones To Ashes - 4:59
7 - Branded And Exiled - 3:53
8 - Uaschitschun - 4:53
9 - Genghis Khan - 4:11
10 - Soulless - 4:57
11 - Lions Of The Sea - 5:49
12 - Bad To The Bone - 4:46
13 - Conquistadores - 4:50
14 - Chains And Leather - 5:42
15 - Prisoner Of Our Time - 5:22

EAC-Log, CUE-Sheed & NFO:

Click to open spoiler
Exact Audio Copy V1.0 beta 3 from 29. August 2011

EAC extraction logfile from 1. March 2012, 18:46

Running Wild / The Story Of Jolly Roger [Japan, Victor, VICP-60220, 1998]

Used drive : HL-DT-STDVDRAM GSA-T50F Adapter: 0 ID: 2

Read mode : Secure
Utilize accurate stream : Yes
Defeat audio cache : Yes
Make use of C2 pointers : No

Read offset correction : 667
Overread into Lead-In and Lead-Out : No
Fill up missing offset samples with silence : Yes
Delete leading and trailing silent blocks : No
Null samples used in CRC calculations : Yes
Used interface : Installed external ASPI interface

Used output format : Internal WAV Routines
Sample format : 44.100 Hz; 16 Bit; Stereo

TOC of the extracted CD

Track | Start | Length | Start sector | End sector
———————————————————
1 | 0:00.37 | 6:28.73 | 37 | 29209
2 | 6:29.35 | 4:05.27 | 29210 | 47611
3 | 10:34.62 | 6:30.63 | 47612 | 76924
4 | 17:05.50 | 5:06.67 | 76925 | 99941
5 | 22:12.42 | 5:25.28 | 99942 | 124344
6 | 27:37.70 | 5:11.65 | 124345 | 147734
7 | 32:49.60 | 3:50.27 | 147735 | 165011
8 | 36:40.12 | 4:53.38 | 165012 | 187024
9 | 41:33.50 | 4:08.62 | 187025 | 205686
10 | 45:42.37 | 4:55.70 | 205687 | 227881
11 | 50:38.32 | 5:49.20 | 227882 | 254076
12 | 56:27.52 | 4:47.33 | 254077 | 275634
13 | 61:15.10 | 4:50.05 | 275635 | 297389
14 | 66:05.15 | 5:42.35 | 297390 | 323074
15 | 71:47.50 | 4:34.70 | 323075 | 343694

Range status and errors

Selected range

Filename D:\Rip by Ballcrusher\Running Wild – The Story Of Jolly Roger [Japan, Victor, VICP-60220, 1998].wav

Peak level 98.8 %
Extraction speed 4.3 X
Range quality 99.9 %
Test CRC 069B9902
Copy CRC 069B9902
Copy OK

No errors occurred

AccurateRip summary

Track 1 not present in database
Track 2 not present in database
Track 3 not present in database
Track 4 not present in database
Track 5 not present in database
Track 6 not present in database
Track 7 not present in database
Track 8 not present in database
Track 9 not present in database
Track 10 not present in database
Track 11 not present in database
Track 12 not present in database
Track 13 not present in database
Track 14 not present in database
Track 15 not present in database

None of the tracks are present in the AccurateRip database

End of status report

==== Log checksum C387276FFA26046CDA2D3CB80986DDD3223315A2E76F893CD57457153538D2EA ====

REM DATE 1998
REM DISCID E311E60F
REM COMMENT “ExactAudioCopy v1.0b3”
PERFORMER “Running Wild”
TITLE “The Story Of Jolly Roger [Japan, Victor, VICP-60220, 1998]”
FILE “Running Wild – The Story Of Jolly Roger [Japan, Victor, VICP-60220, 1998].flac” WAVE
TRACK 01 AUDIO
TITLE “Riding The Storm”
PERFORMER “Running Wild”
INDEX 00 00:00:00
INDEX 01 00:00:37
TRACK 02 AUDIO
TITLE “Under Jolly Roger”
PERFORMER “Running Wild”
INDEX 00 06:29:26
INDEX 01 06:29:35
TRACK 03 AUDIO
TITLE “Blazon Stone”
PERFORMER “Running Wild”
INDEX 00 10:34:43
INDEX 01 10:34:62
TRACK 04 AUDIO
TITLE “Sinister Eyes”
PERFORMER “Running Wild”
INDEX 00 17:05:28
INDEX 01 17:05:50
TRACK 05 AUDIO
TITLE “Purgatory”
PERFORMER “Running Wild”
INDEX 00 22:12:33
INDEX 01 22:12:42
TRACK 06 AUDIO
TITLE “Bones To Ashes”
PERFORMER “Running Wild”
INDEX 00 27:37:61
INDEX 01 27:37:70
TRACK 07 AUDIO
TITLE “Branded & Exiled”
PERFORMER “Running Wild”
INDEX 01 32:49:60
TRACK 08 AUDIO
TITLE “Uaschitschun”
PERFORMER “Running Wild”
INDEX 00 36:40:03
INDEX 01 36:40:12
TRACK 09 AUDIO
TITLE “Genghis Khan”
PERFORMER “Running Wild”
INDEX 00 41:33:43
INDEX 01 41:33:50
TRACK 10 AUDIO
TITLE “Soulless”
PERFORMER “Running Wild”
INDEX 00 45:42:16
INDEX 01 45:42:37
TRACK 11 AUDIO
TITLE “Lions Of The Sea”
PERFORMER “Running Wild”
INDEX 00 50:38:26
INDEX 01 50:38:32
TRACK 12 AUDIO
TITLE “Bad To The Bone”
PERFORMER “Running Wild”
INDEX 00 56:27:38
INDEX 01 56:27:52
TRACK 13 AUDIO
TITLE “Conquistadores”
PERFORMER “Running Wild”
INDEX 00 61:15:01
INDEX 01 61:15:10
TRACK 14 AUDIO
TITLE “Chains & Leather”
PERFORMER “Running Wild”
INDEX 00 66:05:01
INDEX 01 66:05:15
TRACK 15 AUDIO
TITLE “Prisoner Of Our Time”
PERFORMER “Running Wild”
INDEX 00 71:47:38
INDEX 01 71:47:50


Spread the Download

Leave a Reply

Your email address will not be published. Required fields are marked *

Enter the text from the image below
 

This site uses Akismet to reduce spam. Learn how your comment data is processed.