Running Wild – The First Years Of Piracy




[Total: 0    Average: 0/5]

Artist: Running Wild
Year: 1991
Genre: Metal
Notes: Discogs
Add. Notes:
Cover incl.: Yes
Encoder: FLAC
Bitrate: ~1000 kBit/s (44.1 kHz/16 Bit/s)
Log & Cue incl.: Yes
Size: 350,19 MB
Password: “slam” (without ” “)


All Downloads/Hosters are compatible

Download 1
Share-online.biz
KatFile.com
Rapidgator.net
Download 2
Share-online.biz
KatFile.com
Rapidgator.net

Tracklist:

1 - Under Jolly Roger - 4:05
2 - Branded And Exiled - 3:50
3 - Soldiers Of Hell - 3:21
4 - Raise Your Fist - 4:51
5 - Walpurgis Night - 5:19
6 - Fight The Oppression - 4:53
7 - Marching To Die - 4:37
8 - Raw Ride - 4:14
9 - Diamonds Of The Black Chest - 2:49
10 - Prisoner Of Our Time - 4:34

EAC-Log, CUE-Sheed & NFO:

Click to open spoiler
Exact Audio Copy V1.0 beta 3 from 29. August 2011

EAC extraction logfile from 1. March 2013, 13:33

Running Wild / The First Years Of Piracy [Germany, N 0184-2]

Used drive : HL-DT-STDVDRAM GSA-T50F Adapter: 0 ID: 2

Read mode : Secure
Utilize accurate stream : Yes
Defeat audio cache : Yes
Make use of C2 pointers : No

Read offset correction : 667
Overread into Lead-In and Lead-Out : No
Fill up missing offset samples with silence : Yes
Delete leading and trailing silent blocks : No
Null samples used in CRC calculations : Yes
Used interface : Installed external ASPI interface

Used output format : Internal WAV Routines
Sample format : 44.100 Hz; 16 Bit; Stereo

TOC of the extracted CD

Track | Start | Length | Start sector | End sector
———————————————————
1 | 0:00.00 | 4:04.70 | 0 | 18369
2 | 4:04.70 | 3:49.72 | 18370 | 35616
3 | 7:54.67 | 3:21.43 | 35617 | 50734
4 | 11:16.35 | 4:51.25 | 50735 | 72584
5 | 16:07.60 | 5:19.22 | 72585 | 96531
6 | 21:27.07 | 4:53.15 | 96532 | 118521
7 | 26:20.22 | 4:36.65 | 118522 | 139286
8 | 30:57.12 | 4:14.20 | 139287 | 158356
9 | 35:11.32 | 2:48.55 | 158357 | 171011
10 | 38:00.12 | 4:34.48 | 171012 | 191609

Range status and errors

Selected range

Filename D:\Rip by Ballcrusher\Running Wild – The First Years Of Piracy [Germany, N 0184-2].wav

Peak level 95.8 %
Extraction speed 3.8 X
Range quality 100.0 %
Test CRC B5793EB1
Copy CRC B5793EB1
Copy OK

No errors occurred

AccurateRip summary

Track 1 accurately ripped (confidence 12) [F038A215] (AR v1)
Track 2 accurately ripped (confidence 12) [9D402688] (AR v1)
Track 3 accurately ripped (confidence 12) [FD742C7B] (AR v1)
Track 4 accurately ripped (confidence 12) [C83DA751] (AR v1)
Track 5 accurately ripped (confidence 12) [A985A394] (AR v1)
Track 6 accurately ripped (confidence 12) [3464FE3C] (AR v1)
Track 7 accurately ripped (confidence 12) [307E5F60] (AR v1)
Track 8 accurately ripped (confidence 12) [361F2727] (AR v1)
Track 9 accurately ripped (confidence 12) [4299FDFB] (AR v1)
Track 10 accurately ripped (confidence 11) [AB694194] (AR v1)

All tracks accurately ripped

End of status report

==== Log checksum 4C2A41ACBA8692242468D89150993E965E2B17788757E246349131431CE6E20C ====

REM DATE 1991
REM DISCID 9C09FA0A
REM COMMENT “ExactAudioCopy v1.0b3”
PERFORMER “Running Wild”
TITLE “The First Years Of Piracy [Germany, N 0184-2]”
FILE “Running Wild – The First Years Of Piracy [Germany, N 0184-2].flac” WAVE
TRACK 01 AUDIO
TITLE “Under Jolly Roger”
PERFORMER “Running Wild”
INDEX 01 00:00:00
TRACK 02 AUDIO
TITLE “Branded And Exiled”
PERFORMER “Running Wild”
INDEX 01 04:04:70
TRACK 03 AUDIO
TITLE “Soldiers Of Hell”
PERFORMER “Running Wild”
INDEX 00 07:54:47
INDEX 01 07:54:67
TRACK 04 AUDIO
TITLE “Raise Your Fist”
PERFORMER “Running Wild”
INDEX 00 11:16:32
INDEX 01 11:16:35
TRACK 05 AUDIO
TITLE “Walpurgis Night”
PERFORMER “Running Wild”
INDEX 00 16:07:57
INDEX 01 16:07:60
TRACK 06 AUDIO
TITLE “Fight The Oppression”
PERFORMER “Running Wild”
INDEX 00 21:27:00
INDEX 01 21:27:07
TRACK 07 AUDIO
TITLE “Marching To Die”
PERFORMER “Running Wild”
INDEX 00 26:20:05
INDEX 01 26:20:22
TRACK 08 AUDIO
TITLE “Raw Ride”
PERFORMER “Running Wild”
INDEX 00 30:56:62
INDEX 01 30:57:12
TRACK 09 AUDIO
TITLE “Diamonds Of The Black Chest”
PERFORMER “Running Wild”
INDEX 00 35:11:12
INDEX 01 35:11:32
TRACK 10 AUDIO
TITLE “Prisoner Of Our Time”
PERFORMER “Running Wild”
INDEX 01 38:00:12


Spread the Download

Leave a Reply

Your email address will not be published. Required fields are marked *

Enter the text from the image below
 

This site uses Akismet to reduce spam. Learn how your comment data is processed.