Running Wild – The First Years Of Piracy (Remastered Japanese Edition)




[Total: 0    Average: 0/5]

Artist: Running Wild
Year: 1991
Genre: Metal
Notes: Discogs
Add. Notes: Remastered Japanese Edition
Cover incl.: Yes
Encoder: FLAC
Bitrate: ~1000 kBit/s (44.1 kHz/16 Bit/s)
Log & Cue incl.: Yes
Size: 384,08 MB
Password: “slam” (without ” “)


All Downloads/Hosters are compatible

Download 1
Share-online.biz
KatFile.com
Rapidgator.net
Download 2
Share-online.biz
KatFile.com
Rapidgator.net

Tracklist:

1 - Under Jolly Roger - 4:05
2 - Branded And Exiled - 3:50
3 - Soldiers Of Hell - 3:21
4 - Raise Your Fist - 4:51
5 - Walpurgis Night - 5:19
6 - Fight The Oppression - 4:53
7 - Marching To Die - 4:37
8 - Raw Ride - 4:14
9 - Diamonds Of The Black Chest - 2:49
10 - Prisoner Of Our Time - 4:34

EAC-Log, CUE-Sheed & NFO:

Click to open spoiler
Exact Audio Copy V1.0 beta 3 from 29. August 2011

EAC extraction logfile from 30. April 2014, 22:24

Running Wild / The First Years Of Piracy [VICP-5179]

Used drive : TSSTcorpCDDVDW SH-S223C Adapter: 0 ID: 0

Read mode : Secure
Utilize accurate stream : Yes
Defeat audio cache : Yes
Make use of C2 pointers : No

Read offset correction : 697
Overread into Lead-In and Lead-Out : No
Fill up missing offset samples with silence : Yes
Delete leading and trailing silent blocks : No
Null samples used in CRC calculations : Yes
Used interface : Installed external ASPI interface

Used output format : User Defined Encoder
Selected bitrate : 1024 kBit/s
Quality : High
Add ID3 tag : No
Command line compressor : C:\Program Files (x86)\Exact Audio Copy\Flac\flac.exe
Additional command line options : -V -8 -T “Date=%year%” -T “Genre=%genre%” %source%

TOC of the extracted CD

Track | Start | Length | Start sector | End sector
———————————————————
1 | 0:00.37 | 4:05.52 | 37 | 18463
2 | 4:06.14 | 3:50.00 | 18464 | 35713
3 | 7:56.14 | 3:21.35 | 35714 | 50823
4 | 11:17.49 | 4:51.30 | 50824 | 72678
5 | 16:09.04 | 5:19.23 | 72679 | 96626
6 | 21:28.27 | 4:53.20 | 96627 | 118621
7 | 26:21.47 | 4:36.60 | 118622 | 139381
8 | 30:58.32 | 4:14.20 | 139382 | 158451
9 | 35:12.52 | 2:48.57 | 158452 | 171108
10 | 38:01.34 | 4:36.50 | 171109 | 191858

Range status and errors

Selected range

Filename D:\CDRip by Ballcrusher\Running Wild – The First Years Of Piracy [VICP-5179].wav

Peak level 94.6 %
Extraction speed 3.1 X
Range quality 100.0 %
Test CRC B573F0E0
Copy CRC B573F0E0
Copy OK

No errors occurred

AccurateRip summary

Track 1 accurately ripped (confidence 1) [C7A1AA80] (AR v1)
Track 2 accurately ripped (confidence 1) [591E2A66] (AR v1)
Track 3 accurately ripped (confidence 1) [8139A050] (AR v1)
Track 4 accurately ripped (confidence 1) [AEC0EE61] (AR v1)
Track 5 accurately ripped (confidence 1) [D495A1D7] (AR v1)
Track 6 accurately ripped (confidence 1) [337D6318] (AR v1)
Track 7 accurately ripped (confidence 1) [A5217C3F] (AR v1)
Track 8 accurately ripped (confidence 1) [20FF95CA] (AR v1)
Track 9 accurately ripped (confidence 1) [EB464998] (AR v1)
Track 10 accurately ripped (confidence 1) [84B535AD] (AR v1)

All tracks accurately ripped

End of status report

==== Log checksum 39197EB22DB233891B50705D91DCD0195960744DB28C692F28A7062F34CAD294 ====

REM DATE 1991
REM DISCID 8D09FE0A
REM COMMENT “ExactAudioCopy v1.0b3”
PERFORMER “Running Wild”
TITLE “The First Years Of Piracy [VICP-5179]”
FILE “Running Wild – The First Years Of Piracy [VICP-5179].flac” WAVE
TRACK 01 AUDIO
TITLE “Under Jolly Roger”
PERFORMER “Running Wild”
INDEX 00 00:00:00
INDEX 01 00:00:37
TRACK 02 AUDIO
TITLE “Branded And Exiled”
PERFORMER “Running Wild”
INDEX 01 04:06:14
TRACK 03 AUDIO
TITLE “Soldiers Of Hell”
PERFORMER “Running Wild”
INDEX 01 07:56:14
TRACK 04 AUDIO
TITLE “Raise Your Fist”
PERFORMER “Running Wild”
INDEX 01 11:17:49
TRACK 05 AUDIO
TITLE “Walpurgis Night”
PERFORMER “Running Wild”
INDEX 01 16:09:04
TRACK 06 AUDIO
TITLE “Fight The Oppression”
PERFORMER “Running Wild”
INDEX 01 21:28:27
TRACK 07 AUDIO
TITLE “Marching To Die”
PERFORMER “Running Wild”
INDEX 01 26:21:47
TRACK 08 AUDIO
TITLE “Raw Ride”
PERFORMER “Running Wild”
INDEX 01 30:58:32
TRACK 09 AUDIO
TITLE “Diamonds Of The Black Chest”
PERFORMER “Running Wild”
INDEX 01 35:12:52
TRACK 10 AUDIO
TITLE “Prisoner Of Our Time”
PERFORMER “Running Wild”
INDEX 01 38:01:34


Spread the Download

Leave a Reply

Your email address will not be published. Required fields are marked *

Enter the text from the image below
 

This site uses Akismet to reduce spam. Learn how your comment data is processed.