Running Wild – The Final Jolly Roger




Artist: Running Wild
Year: 2011
Genre: Metal
Notes: Discogs
Add. Notes:
Cover incl.: Yes
Encoder: FLAC
Bitrate: ~1100 kBit/s (44.1 kHz/16 Bit/s)
Log & Cue incl.: Yes
Size: 502 MB
Password: “slam” (without ” “)


All Downloads/Hosters are compatible

Download 1
KatFile.com
Turbobit.net
FileFactory.com
Rapidgator.net
Download 2
KatFile.com
Turbobit.net
FileFactory.com
Rapidgator.net

Tracklist:

1-1 Intro 1:45
1-2 Port Royal 4:43
1-3 Bad To The Bone 5:47
1-4 Riding The Storm 5:17
1-5 Soulless 6:23
1-6 Prisoner Of Our Time 5:26
1-7 Black Hand Inn 5:27
1-8 Purgatory 5:42
1-9 Battle Of Waterloo 8:27
1-10 Der Kaltverformer 3:28
1-11 Raging Fire 4:08
2-1 Whirlwind 5:46
2-2 Tortuga Bay 4:09
2-3 Branded & Exiled 8:04
2-4 Raise Your Fist 7:07
2-5 Conquistadores 6:04
2-6 Under Jolly Roger 5:51

EAC-Log, CUE-Sheed & NFO:

Click to open spoiler
Exact Audio Copy V1.0 beta 3 from 29. August 2011

EAC extraction logfile from 26. March 2013, 13:25

Running Wild / The Final Jolly Roger – Wacken 2009 [CD1] [GCR 20059D-2]

Used drive : HL-DT-STDVDRAM GSA-T50F Adapter: 0 ID: 2

Read mode : Secure
Utilize accurate stream : Yes
Defeat audio cache : Yes
Make use of C2 pointers : No

Read offset correction : 667
Overread into Lead-In and Lead-Out : No
Fill up missing offset samples with silence : Yes
Delete leading and trailing silent blocks : No
Null samples used in CRC calculations : Yes
Used interface : Installed external ASPI interface

Used output format : Internal WAV Routines
Sample format : 44.100 Hz; 16 Bit; Stereo

TOC of the extracted CD

Track | Start | Length | Start sector | End sector
———————————————————
1 | 0:00.00 | 1:45.28 | 0 | 7902
2 | 1:45.28 | 4:42.66 | 7903 | 29118
3 | 6:28.19 | 5:46.61 | 29119 | 55129
4 | 12:15.05 | 5:16.71 | 55130 | 78900
5 | 17:32.01 | 6:23.24 | 78901 | 107649
6 | 23:55.25 | 5:26.21 | 107650 | 132120
7 | 29:21.46 | 5:26.74 | 132121 | 156644
8 | 34:48.45 | 5:41.60 | 156645 | 182279
9 | 40:30.30 | 8:27.04 | 182280 | 220308
10 | 48:57.34 | 3:28.32 | 220309 | 235940
11 | 52:25.66 | 4:07.39 | 235941 | 254504

Range status and errors

Selected range

Filename D:\Rip by Ballcrusher\Running Wild – The Final Jolly Roger – Wacken 2009 [CD1] [GCR 20059D-2].wav

Peak level 100.0 %
Extraction speed 4.1 X
Range quality 99.9 %
Test CRC 5A54188B
Copy CRC 5A54188B
Copy OK

No errors occurred

AccurateRip summary

Track 1 accurately ripped (confidence 4) [100DB621] (AR v2)
Track 2 accurately ripped (confidence 4) [4B842284] (AR v2)
Track 3 accurately ripped (confidence 4) [5266877E] (AR v2)
Track 4 accurately ripped (confidence 4) [43BB20D4] (AR v2)
Track 5 accurately ripped (confidence 4) [6634164E] (AR v2)
Track 6 accurately ripped (confidence 4) [15E3CDA8] (AR v2)
Track 7 accurately ripped (confidence 4) [91787BB2] (AR v2)
Track 8 accurately ripped (confidence 4) [4F54D2DA] (AR v2)
Track 9 accurately ripped (confidence 4) [0F317F43] (AR v2)
Track 10 accurately ripped (confidence 4) [D7C9D55A] (AR v2)
Track 11 accurately ripped (confidence 4) [A3280618] (AR v2)

All tracks accurately ripped

End of status report

==== Log checksum 98E3ED2D424D19E871A0ADD18A3E4684DD02E4969807C2766401FA319F0FE3E1 ====

Exact Audio Copy V1.0 beta 3 from 29. August 2011

EAC extraction logfile from 26. March 2013, 13:50

Running Wild / The Final Jolly Roger – Wacken 2009 [CD2] [GCR 20059D-2]

Used drive : HL-DT-STDVDRAM GSA-T50F Adapter: 0 ID: 2

Read mode : Secure
Utilize accurate stream : Yes
Defeat audio cache : Yes
Make use of C2 pointers : No

Read offset correction : 667
Overread into Lead-In and Lead-Out : No
Fill up missing offset samples with silence : Yes
Delete leading and trailing silent blocks : No
Null samples used in CRC calculations : Yes
Used interface : Installed external ASPI interface

Used output format : Internal WAV Routines
Sample format : 44.100 Hz; 16 Bit; Stereo

TOC of the extracted CD

Track | Start | Length | Start sector | End sector
———————————————————
1 | 0:00.00 | 5:45.48 | 0 | 25922
2 | 5:45.48 | 4:09.25 | 25923 | 44622
3 | 9:54.73 | 8:03.74 | 44623 | 80921
4 | 17:58.72 | 7:07.01 | 80922 | 112947
5 | 25:05.73 | 6:04.35 | 112948 | 140282
6 | 31:10.33 | 5:51.13 | 140283 | 166620

Range status and errors

Selected range

Filename D:\Rip by Ballcrusher\Running Wild – The Final Jolly Roger – Wacken 2009 [CD2] [GCR 20059D-2].wav

Peak level 98.8 %
Extraction speed 3.7 X
Range quality 100.0 %
Test CRC CA7679DB
Copy CRC CA7679DB
Copy OK

No errors occurred

AccurateRip summary

Track 1 accurately ripped (confidence 4) [3A65199D] (AR v2)
Track 2 accurately ripped (confidence 4) [9E23F0F6] (AR v2)
Track 3 accurately ripped (confidence 4) [92C87E81] (AR v2)
Track 4 accurately ripped (confidence 4) [B8F4936A] (AR v2)
Track 5 accurately ripped (confidence 4) [B9BEE703] (AR v2)
Track 6 accurately ripped (confidence 4) [52E3594E] (AR v2)

All tracks accurately ripped

End of status report

==== Log checksum 9C9F8908CCEA7D6612505CB4BFA64CBB60C2CE11B1DAABB14291FC013843FC38 ====

REM GENRE “Heavy Metal”
REM DATE 2011
REM DISCID 8D0D410B
REM COMMENT “ExactAudioCopy v1.0b3”
PERFORMER “Running Wild”
TITLE “The Final Jolly Roger – Wacken 2009 [CD1] [GCR 20059D-2]”
FILE “Running Wild – The Final Jolly Roger – Wacken 2009 [CD1] [GCR 20059D-2].flac” WAVE
TRACK 01 AUDIO
TITLE “Intro”
PERFORMER “Running Wild”
INDEX 01 00:00:00
TRACK 02 AUDIO
TITLE “Port Royal”
PERFORMER “Running Wild”
INDEX 01 01:45:28
TRACK 03 AUDIO
TITLE “Bad To The Bone”
PERFORMER “Running Wild”
INDEX 01 06:28:19
TRACK 04 AUDIO
TITLE “Riding The Storm”
PERFORMER “Running Wild”
INDEX 01 12:15:05
TRACK 05 AUDIO
TITLE “Soulless”
PERFORMER “Running Wild”
INDEX 01 17:32:01
TRACK 06 AUDIO
TITLE “Prisoner Of Our Time”
PERFORMER “Running Wild”
INDEX 01 23:55:25
TRACK 07 AUDIO
TITLE “Black Hand Inn”
PERFORMER “Running Wild”
INDEX 01 29:21:46
TRACK 08 AUDIO
TITLE “Purgatory”
PERFORMER “Running Wild”
INDEX 01 34:48:45
TRACK 09 AUDIO
TITLE “Battle Of Waterloo”
PERFORMER “Running Wild”
INDEX 01 40:30:30
TRACK 10 AUDIO
TITLE “Der Kaltverformer”
PERFORMER “Running Wild”
INDEX 01 48:57:34
TRACK 11 AUDIO
TITLE “Raging Fire”
PERFORMER “Running Wild”
INDEX 01 52:25:66

REM GENRE “Heavy Metal”
REM DATE 2011
REM DISCID 4C08AD06
REM COMMENT “ExactAudioCopy v1.0b3”
PERFORMER “Running Wild”
TITLE “The Final Jolly Roger – Wacken 2009 [CD2] [GCR 20059D-2]”
FILE “Running Wild – The Final Jolly Roger – Wacken 2009 [CD2] [GCR 20059D-2].flac” WAVE
TRACK 01 AUDIO
TITLE “Whirlwind ”
PERFORMER “Running Wild”
INDEX 01 00:00:00
TRACK 02 AUDIO
TITLE “Tortuga Bay ”
PERFORMER “Running Wild”
INDEX 01 05:45:48
TRACK 03 AUDIO
TITLE “Branded & Exiled ”
PERFORMER “Running Wild”
INDEX 01 09:54:73
TRACK 04 AUDIO
TITLE “Raise Your Fist ”
PERFORMER “Running Wild”
INDEX 01 17:58:72
TRACK 05 AUDIO
TITLE “Conquistadores ”
PERFORMER “Running Wild”
INDEX 01 25:05:73
TRACK 06 AUDIO
TITLE “Under Jolly Roger ”
PERFORMER “Running Wild”
INDEX 01 31:10:33


Leave a Reply

Your email address will not be published. Required fields are marked *

This site uses Akismet to reduce spam. Learn how your comment data is processed.