Running Wild – The Brotherhood (Limited Edition)




Artist: Running Wild
Year: 2002
Genre: Rock
Notes: Discogs
Add. Notes: Limited Edition
Cover incl.: Yes
Encoder: FLAC
Bitrate: ~1000 kBit/s (44.1 kHz/16 Bit/s)
Log & Cue incl.: Yes
Size: 571 MB
Password: “slam” (without ” “)


All Downloads/Hosters are compatible

Download 1
KatFile.com
Rapidgator.net
Turbobit.net
FileFactory.com
Download 2
KatFile.com
Rapidgator.net
Turbobit.net
FileFactory.com

Tracklist:

1 - Welcome To Hell - 4:33
2 - Soulstrippers - 4:45
3 - The Brotherhood - 6:46
4 - Crossfire - 4:25
5 - Siberian Winter - 6:25
6 - Detonator - 3:49
7 - Pirate Song - 3:14
8 - Unation - 5:46
9 - Dr. Horror - 4:50
10 - The Ghost - 10:20
Bonus Tracks
11 - Powerride - 4:23
12 - Faceless - 4:27

EAC-Log, CUE-Sheed & NFO:

Click to open spoiler
Exact Audio Copy V1.0 beta 3 from 29. August 2011

EAC extraction logfile from 1. March 2013, 18:02

Running Wild / The Brotherhood [EU, GUN 194 (BMG 74321 91200 2)]

Used drive : HL-DT-STDVDRAM GSA-T50F Adapter: 0 ID: 2

Read mode : Secure
Utilize accurate stream : Yes
Defeat audio cache : Yes
Make use of C2 pointers : No

Read offset correction : 667
Overread into Lead-In and Lead-Out : No
Fill up missing offset samples with silence : Yes
Delete leading and trailing silent blocks : No
Null samples used in CRC calculations : Yes
Used interface : Installed external ASPI interface

Used output format : Internal WAV Routines
Sample format : 44.100 Hz; 16 Bit; Stereo

TOC of the extracted CD

Track | Start | Length | Start sector | End sector
———————————————————
1 | 0:00.00 | 4:34.44 | 0 | 20593
2 | 4:34.44 | 4:47.61 | 20594 | 42179
3 | 9:22.30 | 6:48.66 | 42180 | 72845
4 | 16:11.21 | 4:26.53 | 72846 | 92848
5 | 20:37.74 | 6:27.43 | 92849 | 121916
6 | 27:05.42 | 3:51.30 | 121917 | 139271
7 | 30:56.72 | 3:16.24 | 139272 | 153995
8 | 34:13.21 | 5:48.30 | 153996 | 180125
9 | 40:01.51 | 4:52.69 | 180126 | 202094
10 | 44:54.45 | 10:22.37 | 202095 | 248781
11 | 55:17.07 | 4:25.69 | 248782 | 268725
12 | 59:43.01 | 4:27.48 | 268726 | 288798

Range status and errors

Selected range

Filename D:\Rip by Ballcrusher\Running Wild – The Brotherhood [EU, GUN 194 (BMG 74321 91200 2)].wav

Peak level 98.8 %
Extraction speed 4.1 X
Range quality 100.0 %
Test CRC A2735F6A
Copy CRC A2735F6A
Copy OK

No errors occurred

AccurateRip summary

Track 1 accurately ripped (confidence 3) [9D2FB843] (AR v2)
Track 2 accurately ripped (confidence 3) [0E9D9E35] (AR v2)
Track 3 accurately ripped (confidence 3) [98074F47] (AR v2)
Track 4 accurately ripped (confidence 3) [68A5911C] (AR v2)
Track 5 accurately ripped (confidence 3) [A00995F4] (AR v2)
Track 6 accurately ripped (confidence 3) [0E9CBC22] (AR v2)
Track 7 accurately ripped (confidence 3) [2096F3F9] (AR v2)
Track 8 accurately ripped (confidence 3) [5253CD69] (AR v2)
Track 9 accurately ripped (confidence 3) [679078D0] (AR v2)
Track 10 accurately ripped (confidence 3) [1A67BC09] (AR v2)
Track 11 accurately ripped (confidence 3) [F01134FC] (AR v2)
Track 12 accurately ripped (confidence 3) [7B2AC59E] (AR v2)

All tracks accurately ripped

End of status report

==== Log checksum E9901012A5B6DCA7B8D755D4794615A636E770C1B14CA3AD738FE013905D68AA ====

REM DATE 2002
REM DISCID B90F0A0C
REM COMMENT “ExactAudioCopy v1.0b3”
PERFORMER “Running Wild”
TITLE “The Brotherhood [EU, GUN 194 (BMG 74321 91200 2)]”
FILE “Running Wild – The Brotherhood [EU, GUN 194 (BMG 74321 91200 2)].flac” WAVE
TRACK 01 AUDIO
TITLE “Welcome To Hell”
PERFORMER “Running Wild”
INDEX 01 00:00:00
TRACK 02 AUDIO
TITLE “Soulstrippers”
PERFORMER “Running Wild”
INDEX 00 04:33:44
INDEX 01 04:34:44
TRACK 03 AUDIO
TITLE “The Brotherhood”
PERFORMER “Running Wild”
INDEX 00 09:20:30
INDEX 01 09:22:30
TRACK 04 AUDIO
TITLE “Crossfire”
PERFORMER “Running Wild”
INDEX 00 16:09:21
INDEX 01 16:11:21
TRACK 05 AUDIO
TITLE “Siberian Winter”
PERFORMER “Running Wild”
INDEX 00 20:36:74
INDEX 01 20:37:74
TRACK 06 AUDIO
TITLE “Detonator”
PERFORMER “Running Wild”
INDEX 00 27:03:42
INDEX 01 27:05:42
TRACK 07 AUDIO
TITLE “Pirate Song”
PERFORMER “Running Wild”
INDEX 00 30:54:72
INDEX 01 30:56:72
TRACK 08 AUDIO
TITLE “Unation”
PERFORMER “Running Wild”
INDEX 00 34:11:21
INDEX 01 34:13:21
TRACK 09 AUDIO
TITLE “Dr. Horror”
PERFORMER “Running Wild”
INDEX 00 39:59:51
INDEX 01 40:01:51
TRACK 10 AUDIO
TITLE “The Ghost”
PERFORMER “Running Wild”
INDEX 00 44:52:45
INDEX 01 44:54:45
TRACK 11 AUDIO
TITLE “Powerride [Bonus]”
PERFORMER “Running Wild”
INDEX 00 55:15:07
INDEX 01 55:17:07
TRACK 12 AUDIO
TITLE “Faceless [Bonus]”
PERFORMER “Running Wild”
INDEX 00 59:41:01
INDEX 01 59:43:01


Leave a Reply

Your email address will not be published. Required fields are marked *

Enter the text from the image below
 

This site uses Akismet to reduce spam. Learn how your comment data is processed.