Running Wild – Shadowmaker (Limited Edition)




Artist: Running Wild
Year: 2012
Genre: Metal
Notes: Discogs
Add. Notes: Limited Edition
Cover incl.: Yes
Encoder: FLAC
Bitrate: ~1100 kBit/s (44.1 kHz/16 Bit/s)
Log & Cue incl.: Yes
Size: 531,5 MB
Password: “slam” (without ” “)


All Downloads/Hosters are compatible

Download 1
KatFile.com
Turbobit.net
FileFactory.com
Rapidgator.net
Download 2
KatFile.com
Turbobit.net
FileFactory.com
Rapidgator.net

Tracklist:

1 Piece Of The Action 4:35
2 Riding On The Tide 4:29
3 I Am Who I Am 4:51
4 Black Shadow 5:19
5 Locomotive 4:39
6 Me & The Boys 5:02
7 Shadowmaker 4:37
8 Sailing Fire 4:21
9 Into The Black 4:50
10 Dracula 7:25

EAC-Log, CUE-Sheed & NFO:

Click to open spoiler
Exact Audio Copy V1.0 beta 3 from 29. August 2011

EAC extraction logfile from 1. March 2013, 20:26

Running Wild / Shadowmaker [Germany, SPV 260080 CD+DVD]

Used drive : HL-DT-STDVDRAM GSA-T50F Adapter: 0 ID: 2

Read mode : Secure
Utilize accurate stream : Yes
Defeat audio cache : Yes
Make use of C2 pointers : No

Read offset correction : 667
Overread into Lead-In and Lead-Out : No
Fill up missing offset samples with silence : Yes
Delete leading and trailing silent blocks : No
Null samples used in CRC calculations : Yes
Used interface : Installed external ASPI interface

Used output format : Internal WAV Routines
Sample format : 44.100 Hz; 16 Bit; Stereo

TOC of the extracted CD

Track | Start | Length | Start sector | End sector
———————————————————
1 | 0:00.00 | 4:36.35 | 0 | 20734
2 | 4:36.35 | 4:25.26 | 20735 | 40635
3 | 9:01.61 | 4:52.34 | 40636 | 62569
4 | 13:54.20 | 5:19.32 | 62570 | 86526
5 | 19:13.52 | 4:40.38 | 86527 | 107564
6 | 23:54.15 | 5:03.35 | 107565 | 130324
7 | 28:57.50 | 4:38.30 | 130325 | 151204
8 | 33:36.05 | 4:23.13 | 151205 | 170942
9 | 37:59.18 | 4:51.49 | 170943 | 192816
10 | 42:50.67 | 7:25.15 | 192817 | 226206

Range status and errors

Selected range

Filename D:\Rip by Ballcrusher\Running Wild – Shadowmaker [Germany, SPV 260080 CD+DVD].wav

Peak level 98.9 %
Extraction speed 4.0 X
Range quality 100.0 %
Test CRC 87CCE0D5
Copy CRC 87CCE0D5
Copy OK

No errors occurred

AccurateRip summary

Track 1 accurately ripped (confidence 4) [29771307] (AR v2)
Track 2 accurately ripped (confidence 4) [56620DE4] (AR v2)
Track 3 accurately ripped (confidence 4) [9D0AF0C8] (AR v2)
Track 4 accurately ripped (confidence 4) [AC1421C8] (AR v2)
Track 5 accurately ripped (confidence 4) [9794BA87] (AR v2)
Track 6 accurately ripped (confidence 4) [E735E642] (AR v2)
Track 7 accurately ripped (confidence 4) [581FD11F] (AR v2)
Track 8 accurately ripped (confidence 4) [0B092F3D] (AR v2)
Track 9 accurately ripped (confidence 4) [B06D8F79] (AR v2)
Track 10 accurately ripped (confidence 4) [739829AA] (AR v2)

All tracks accurately ripped

End of status report

==== Log checksum 3A8DCBFB519F6593D7F465CF79A64F16FA5D80F75CE6950FE7078CDC763BA505 ====

REM GENRE “Heavy Metal”
REM DATE 2012
REM DISCID 860BC80A
REM COMMENT “ExactAudioCopy v1.0b3”
PERFORMER “Running Wild”
TITLE “Shadowmaker [Germany, SPV 260080 CD+DVD]”
FILE “Running Wild – Shadowmaker [Germany, SPV 260080 CD+DVD].flac” WAVE
TRACK 01 AUDIO
TITLE “Piece Of The Action”
PERFORMER “Running Wild”
INDEX 01 00:00:00
TRACK 02 AUDIO
TITLE “Riding On The Tide”
PERFORMER “Running Wild”
INDEX 00 04:34:36
INDEX 01 04:36:35
TRACK 03 AUDIO
TITLE “I Am Who I Am”
PERFORMER “Running Wild”
INDEX 00 09:00:62
INDEX 01 09:01:61
TRACK 04 AUDIO
TITLE “Black Shadow”
PERFORMER “Running Wild”
INDEX 00 13:52:21
INDEX 01 13:54:20
TRACK 05 AUDIO
TITLE “Locomotive”
PERFORMER “Running Wild”
INDEX 00 19:12:53
INDEX 01 19:13:52
TRACK 06 AUDIO
TITLE “Me & The Boys”
PERFORMER “Running Wild”
INDEX 00 23:52:16
INDEX 01 23:54:15
TRACK 07 AUDIO
TITLE “Shadowmaker”
PERFORMER “Running Wild”
INDEX 00 28:55:51
INDEX 01 28:57:50
TRACK 08 AUDIO
TITLE “Sailing Fire”
PERFORMER “Running Wild”
INDEX 00 33:34:06
INDEX 01 33:36:05
TRACK 09 AUDIO
TITLE “Into The Black”
PERFORMER “Running Wild”
INDEX 00 37:57:19
INDEX 01 37:59:18
TRACK 10 AUDIO
TITLE “Dracula”
PERFORMER “Running Wild”
INDEX 00 42:48:68
INDEX 01 42:50:67


Leave a Reply

Your email address will not be published. Required fields are marked *

This site uses Akismet to reduce spam. Learn how your comment data is processed.